国语视界

 找回密码
 立即注册
搜索
查看: 703|回复: 97

[调制] 假面饭店/假面酒店Masquerade.Hotel.2019 龙祥台配DD2.0-256kbps

  [复制链接]
  • TA的每日心情
    无聊
    17-1-24 08:24
  • 签到天数: 28 天

    [LV.4]偶尔看看III

    1600

    主题

    2465

    帖子

    1万

    积分

    超级版主

    Rank: 18Rank: 18Rank: 18Rank: 18Rank: 18

    大洋
    567484
    矿工
    49

    突出贡献皇马褂超级版主

    发表于 20-2-20 15:33 | 显示全部楼层 |阅读模式
    本帖最后由 yuanyiyang 于 20-2-20 21:39 编辑
    假面饭店/假面酒店Masquerade.Hotel.2019 龙祥台配DD2.0-256kbps[52KHD录制,新月无恨提供,yuanyiyang调制/02:13:02:443/23.976/BD

    素材由52KHD录制,新月无恨版主提供
    匹配:02:13:02:443/23.976/BD
    特别感谢"节奏大佬"友情赞助115 VIP!!!
    对素材提供者和视频提供者一并深表感谢。

    本音轨只在【cnlang.org】与友站【52KHD】交流发布,权限40
    严禁任何形式的提取再加工,转载,合成发布,多谢配合




    《假面饭店》是根据东野圭吾同名小说改编的电影。由铃木雅之执导,冈田道尚编剧,木村拓哉主演、长泽雅美等人出演。于2019年1月18日在日本首映。该片主要讲述刑警新田浩介扮成服务生混入酒店,与酒店前台员工山岸尚美一起追查连续杀人事件的故事。

    导演: 铃木雅之
    编剧: 岡田道尚 / 东野圭吾
    主演: 木村拓哉 / 长泽雅美 / 滨田岳 / 前田敦子 / 笹野高史 / 更多...
    类型: 剧情 / 悬疑 / 犯罪
    官方网站: masquerade-hotel.jp
    制片国家/地区: 日本
    语言: 日语
    上映日期: 2019-01-18(日本)
    片长: 133分钟
    又名: 假面酒店 / The Masquerade Hotel
    IMDb链接: tt7502322
    生成信息: movieinfo
    资源名称: 假面饭店.The.Masquerade.Hotel.2019
    豆瓣评分: 6.7

    假面饭店的剧情简介 · · · · · ·
      刑警(木村拓哉)扮成服务生混入酒店,与酒店前台(长泽雅美 饰演)一起追查连续杀人事件的故事。鈴木雅之执导,预计2019年上映。

    影片评价
    该片中作为一个追踪犯人的刑警,新田会对住客态度严厉,而山岸却对住客有着最大的信任和包容,两个人的信念就好像吸铁石的N极和S极一样相互排斥,时常会陷入紧张的气氛。但是,由于某个契机,两人渐渐改变了自己对问题的看法,为了将自己的工作做到最好,心中都萌发出了对对方的信任。在这个过程中,影片将“专业人士到底应该怎么做才对”这一主题抛给了观众思考。(映画 评)

    部分观众表示,在《假面饭店》中,木村拓哉做到了精湛帅气的演技,以及与他年龄相符的沉稳表现。(Daily新潮评)

    General
    Complete name                  : G:\素材\假面饭店/假面酒店Masquerade.Hotel.2019 龙祥台配DD2.0-256kbps[52KHD录制,新月无恨提供,yuanyiyang调制/02:13:02:443/23.976/BD ].ac3
    Format                         : AC-3
    Format/Info                    : Audio Coding 3
    Commercial name                : Dolby Digital
    File size                      : 244 MiB
    Duration                       : 2 h 13 min
    Overall bit rate mode          : Constant
    Overall bit rate               : 256 kb/s

    Audio
    Format                         : AC-3
    Format/Info                    : Audio Coding 3
    Commercial name                : Dolby Digital
    Duration                       : 2 h 13 min
    Bit rate mode                  : Constant
    Bit rate                       : 256 kb/s
    Channel(s)                     : 2 channels
    Channel layout                 : L R
    Sampling rate                  : 48.0 kHz
    Frame rate                     : 31.250 FPS (1536 SPF)
    Bit depth                      : 16 bits
    Compression mode               : Lossy
    Stream size                    : 244 MiB (100%)
    Service kind                   : Complete Main

    General
    Unique ID                      : 184439875439479522211370620054711665339 (0x8AC1D3F19190CBAD3CAB9AE5A46582BB)
    Complete name                  : G:\新建文件夹 (9)\假面饭店Masquerade.Hotel.2019.JAPANESE.1080p.BluRay.x264.DTS.mkv
    Format                         : Matroska
    Format version                 : Version 4
    File size                      : 11.0 GiB
    Duration                       : 2 h 13 min
    Overall bit rate               : 11.8 Mb/s
    Movie name                     : Masquerade.Hotel.2019.JAPANESE.1080p.BluRay.x264.DTS
    Encoded date                   : UTC 2020-02-08 20:40:28
    Writing application            : mkvmerge v43.0.0 ('The Quartermaster') 64-bit
    Writing library                : libebml v1.3.10 + libmatroska v1.5.2
    Cover                          : Yes
    Attachments                    : small_cover.jpg / small_cover_land.jpg / cover.jpg / cover_land.jpg

    Video
    ID                             : 1
    Format                         : AVC
    Format/Info                    : Advanced Video Codec
    Format profile                 : [email protected]
    Format settings                : CABAC / 5 Ref Frames
    Format settings, CABAC         : Yes
    Format settings, ReFrames      : 5 frames
    Codec ID                       : V_MPEG4/ISO/AVC
    Duration                       : 2 h 13 min
    Bit rate                       : 11.1 Mb/s
    Width                          : 1 920 pixels
    Height                         : 804 pixels
    Display aspect ratio           : 2.40:1
    Frame rate mode                : Constant
    Frame rate                     : 23.976 (24000/1001) FPS
    Color space                    : YUV
    Chroma subsampling             : 4:2:0
    Bit depth                      : 8 bits
    Scan type                      : Progressive
    Bits/(Pixel*Frame)             : 0.299
    Stream size                    : 10.3 GiB (93%)
    Writing library                : x264 core 129 r2245+704+36 8e61944 tMod+MixAQ [[email protected]:2:0 X86_64]
    Encoding settings              : cabac=1 / ref=5 / deblock=1:-3:-3 / analyse=0x3:0x133 / me=umh / subme=11 / psy=1 / fade_compensate=0.00 / psy_rd=1.05:0.10 / mixed_ref=1 / me_range=64 / chroma_me=1 / trellis=2 / 8x8dct=1 / cqm=0 / deadzone=21,11 / fast_pskip=0 / chroma_qp_offset=-3 / threads=18 / lookahead_threads=3 / sliced_threads=0 / nr=0 / decimate=0 / interlaced=0 / bluray_compat=0 / constrained_intra=0 / fgo=0 / bframes=10 / b_pyramid=2 / b_adapt=2 / b_bias=0 / direct=3 / weightb=1 / open_gop=0 / weightp=2 / keyint=250 / keyint_min=23 / scenecut=40 / intra_refresh=0 / rc=2pass / mbtree=0 / bitrate=11062 / ratetol=1.0 / qcomp=0.70 / qpmin=0 / qpmax=69 / qpstep=4 / cplxblur=20.0 / qblur=0.5 / ip_ratio=1.40 / pb_ratio=1.30 / aq=1 / aq-strength=0.90 / aq-sensitivity=10.00 / aq-ifactor=1.00 / aq-pfactor=1.00 / aq-bfactor=1.00 / aq2=0
    Language                       : Japanese
    Default                        : Yes
    Forced                         : No

    Audio
    ID                             : 2
    Format                         : DTS
    Format/Info                    : Digital Theater Systems
    Codec ID                       : A_DTS
    Duration                       : 2 h 13 min
    Bit rate mode                  : Constant
    Bit rate                       : 768 kb/s
    Channel(s)                     : 6 channels
    Channel layout                 : C L R Ls Rs LFE
    Sampling rate                  : 48.0 kHz
    Frame rate                     : 93.750 FPS (512 SPF)
    Bit depth                      : 24 bits
    Compression mode               : Lossy
    Stream size                    : 731 MiB (6%)
    Language                       : Japanese
    Default                        : Yes
    Forced                         : No

    Text #1
    ID                             : 3
    Format                         : UTF-8
    Codec ID                       : S_TEXT/UTF8
    Codec ID/Info                  : UTF-8 Plain Text
    Duration                       : 2 h 9 min
    Bit rate                       : 60 b/s
    Count of elements              : 1762
    Stream size                    : 57.3 KiB (0%)
    Language                       : English
    Default                        : Yes
    Forced                         : No

    Text #2
    ID                             : 4
    Format                         : UTF-8
    Codec ID                       : S_TEXT/UTF8
    Codec ID/Info                  : UTF-8 Plain Text
    Duration                       : 2 h 9 min
    Bit rate                       : 40 b/s
    Count of elements              : 1503
    Stream size                    : 38.7 KiB (0%)
    Title                          : Simplified
    Language                       : Chinese
    Default                        : No
    Forced                         : No

    Text #3
    ID                             : 5
    Format                         : UTF-8
    Codec ID                       : S_TEXT/UTF8
    Codec ID/Info                  : UTF-8 Plain Text
    Duration                       : 2 h 9 min
    Bit rate                       : 40 b/s
    Count of elements              : 1503
    Stream size                    : 38.7 KiB (0%)
    Title                          : Traditional
    Language                       : Chinese
    Default                        : No
    Forced                         : No

    音轨:含磁链,权限40
    游客,如果您要查看本帖隐藏内容请回复

    本帖子中包含更多资源

    您需要 登录 才可以下载或查看,没有帐号?立即注册

    x

    评分

    参与人数 1威望 +30 大洋 +300 收起 理由
    ll509 + 30 + 300 厉害了我的神!

    查看全部评分

  • TA的每日心情
    开心
    20-3-29 18:36
  • 签到天数: 543 天

    [LV.9]以坛为家II

    20

    主题

    1796

    帖子

    3895

    积分

    团长

    Rank: 6Rank: 6

    大洋
    45400
    矿工
    50
    发表于 20-2-20 15:38 | 显示全部楼层
    男主角在检察方的罪人里面印象深刻,实力与颜值担当的男人
    我已经深深爱上国语视界了!喜欢这里的人,喜欢这边的环境!
    回复 支持 反对

    使用道具 举报

  • TA的每日心情
    开心
    20-3-29 06:24
  • 签到天数: 207 天

    [LV.7]常住居民III

    18

    主题

    4376

    帖子

    650

    积分

    连长

    Rank: 4

    大洋
    1105
    矿工
    30
    发表于 20-2-20 15:47 | 显示全部楼层
    根据东野圭吾小说改编的悬疑类电影,挺喜欢的,谢谢yuan版调配,辛苦了。
    回复 支持 反对

    使用道具 举报

  • TA的每日心情
    开心
    20-3-29 06:51
  • 签到天数: 924 天

    [LV.10]以坛为家III

    5

    主题

    2052

    帖子

    1万

    积分

    师长

    Rank: 8Rank: 8

    大洋
    23684
    矿工
    50
    发表于 20-2-20 15:57 | 显示全部楼层
    感谢超版分享日本影片台配音轨
    回复 支持 反对

    使用道具 举报

  • TA的每日心情
    开心
    20-3-30 00:02
  • 签到天数: 510 天

    [LV.9]以坛为家II

    2

    主题

    2339

    帖子

    1231

    积分

    营长

    Rank: 5Rank: 5

    大洋
    167
    矿工
    30
    发表于 20-2-20 15:59 | 显示全部楼层
    日本电影看的不多了,犯罪悬疑片应该好看,谢谢版主分享
    回复 支持 反对

    使用道具 举报

    该用户从未签到

    0

    主题

    29

    帖子

    7

    积分

    列兵

    Rank: 1

    大洋
    14
    矿工
    0
    发表于 20-2-20 16:10 | 显示全部楼层
    这个之前在龙祥电影台播过,怎么到现在才首发???
    回复 支持 反对

    使用道具 举报

  • TA的每日心情

    20-3-29 09:35
  • 签到天数: 102 天

    [LV.6]常住居民II

    21

    主题

    944

    帖子

    204

    积分

    排长

    Rank: 3Rank: 3

    大洋
    37
    矿工
    12
    发表于 20-2-20 16:10 | 显示全部楼层
    日本的悬疑剧还是有看头的
    回复 支持 反对

    使用道具 举报

  • TA的每日心情
    无聊
    20-3-29 10:28
  • 签到天数: 501 天

    [LV.9]以坛为家II

    7

    主题

    4938

    帖子

    3138

    积分

    团长

    Rank: 6Rank: 6

    大洋
    15427
    矿工
    45

    灌水之王

    QQ
    发表于 20-2-20 16:12 | 显示全部楼层
    感谢辛苦调制
    回复 支持 反对

    使用道具 举报

  • TA的每日心情
    开心
    20-3-29 00:00
  • 签到天数: 416 天

    [LV.9]以坛为家II

    3

    主题

    688

    帖子

    675

    积分

    连长

    Rank: 4

    大洋
    711
    矿工
    30
    发表于 20-2-20 16:15 | 显示全部楼层
    长泽雅美和木村拓哉。。。阵容绝对豪华
    回复 支持 反对

    使用道具 举报

  • TA的每日心情

    20-3-29 07:10
  • 签到天数: 44 天

    [LV.5]常住居民I

    7

    主题

    2047

    帖子

    335

    积分

    排长

    Rank: 3Rank: 3

    大洋
    1341
    矿工
    25
    发表于 20-2-20 16:22 | 显示全部楼层
    谢谢提供分享。
    回复 支持 反对

    使用道具 举报

  • TA的每日心情
    开心
    20-3-30 00:02
  • 签到天数: 713 天

    [LV.9]以坛为家II

    67

    主题

    3323

    帖子

    3159

    积分

    团长

    Rank: 6Rank: 6

    大洋
    13740
    矿工
    49
    发表于 20-2-20 16:27 | 显示全部楼层
    谢谢版主分享。制作辛苦了!
    回复 支持 反对

    使用道具 举报

  • TA的每日心情
    奋斗
    20-3-29 08:41
  • 签到天数: 499 天

    [LV.9]以坛为家II

    11

    主题

    893

    帖子

    720

    积分

    连长

    Rank: 4

    大洋
    1677
    矿工
    49
    发表于 20-2-20 16:31 | 显示全部楼层
    闭门在家,实在无聊,多谢版主奉献,可以看国配的了
    回复 支持 反对

    使用道具 举报

  • TA的每日心情
    开心
    20-3-29 14:42
  • 签到天数: 487 天

    [LV.9]以坛为家II

    4

    主题

    1436

    帖子

    235

    积分

    排长

    Rank: 3Rank: 3

    大洋
    13117
    矿工
    16
    发表于 20-2-20 16:41 | 显示全部楼层
    感谢楼主分享,权限不够,攒大洋了
    回复 支持 反对

    使用道具 举报

  • TA的每日心情

    20-3-29 14:10
  • 签到天数: 1049 天

    [LV.10]以坛为家III

    305

    主题

    9637

    帖子

    9849

    积分

    旅长

    Rank: 7Rank: 7Rank: 7

    大洋
    33888
    矿工
    50

    灌水之王热心会员论坛元老王者至尊富甲天下爱心大使

    发表于 20-2-20 16:44 | 显示全部楼层
    木村拓哉可以看看,也是大红大紫的人。。。。。。。。。。。
    完美的影片应该是蓝光4K视频+次世代原声+次时代国语+国配特效字幕+原盘特效字幕+特效注释字幕
    回复 支持 反对

    使用道具 举报

  • TA的每日心情
    奋斗
    20-3-28 22:00
  • 签到天数: 541 天

    [LV.9]以坛为家II

    2

    主题

    1218

    帖子

    381

    积分

    排长

    Rank: 3Rank: 3

    大洋
    11700
    矿工
    34
    发表于 20-2-20 16:53 | 显示全部楼层
    多谢版主,可以看国配的
    努力挣大洋
    回复 支持 反对

    使用道具 举报

  • TA的每日心情
    开心
    20-2-24 17:31
  • 签到天数: 612 天

    [LV.9]以坛为家II

    12

    主题

    1139

    帖子

    379

    积分

    禁止访问

    大洋
    16580
    矿工
    50
    发表于 20-2-20 16:55 | 显示全部楼层
    提示: 作者被禁止或删除 内容自动屏蔽
    回复 支持 反对

    使用道具 举报

  • TA的每日心情
    无聊
    20-2-17 00:13
  • 签到天数: 149 天

    [LV.7]常住居民III

    0

    主题

    970

    帖子

    1001

    积分

    营长

    Rank: 5Rank: 5

    大洋
    973
    矿工
    35
    发表于 20-2-20 16:59 | 显示全部楼层
    喜欢看这个类型的电影,感谢制作国语音轨
    回复 支持 反对

    使用道具 举报

  • TA的每日心情

    20-3-29 09:27
  • 签到天数: 475 天

    [LV.9]以坛为家II

    0

    主题

    967

    帖子

    229

    积分

    排长

    Rank: 3Rank: 3

    大洋
    28
    矿工
    27
    发表于 20-2-20 17:01 | 显示全部楼层
    又一版杰作
    回复 支持 反对

    使用道具 举报

  • TA的每日心情
    慵懒
    20-3-29 06:48
  • 签到天数: 774 天

    [LV.10]以坛为家III

    26

    主题

    3444

    帖子

    7093

    积分

    旅长

    Rank: 7Rank: 7Rank: 7

    大洋
    17442
    矿工
    50
    发表于 20-2-20 17:01 | 显示全部楼层
    片子不错,就不剧透了
    回复 支持 反对

    使用道具 举报

  • TA的每日心情
    开心
    20-3-29 10:52
  • 签到天数: 84 天

    [LV.6]常住居民II

    1

    主题

    192

    帖子

    226

    积分

    排长

    Rank: 3Rank: 3

    大洋
    963
    矿工
    0
    发表于 20-2-20 17:08 | 显示全部楼层
    谢谢调制,这个电影相当不错
    回复 支持 反对

    使用道具 举报

    您需要登录后才可以回帖 登录 | 立即注册

    本版积分规则

    Archiver|手机版|cnlang.org

    GMT+8, 20-3-30 04:59 , Processed in 0.026528 second(s), 15 queries , Gzip On, MemCache On.

    Powered by Discuz! X3.4

    © 2001-2018 Comsenz Inc.

    快速回复 返回顶部 返回列表