国语视界

 找回密码
 立即注册
搜索
查看: 498|回复: 39

[调制] 乡巴佬征服纽约/牛仔路/反转纽约The.Cowboy.Way.1994.东影上译DD2.0-256kbps

[复制链接]
  • TA的每日心情
    无聊
    17-1-24 08:24
  • 签到天数: 28 天

    [LV.4]偶尔看看III

    1600

    主题

    2465

    帖子

    1万

    积分

    超级版主

    Rank: 18Rank: 18Rank: 18Rank: 18Rank: 18

    大洋
    567489
    矿工
    49

    突出贡献皇马褂超级版主

    发表于 20-3-2 14:33 | 显示全部楼层 |阅读模式
    本帖最后由 yuanyiyang 于 20-3-21 22:18 编辑
    乡巴佬征服纽约/牛仔路/反转纽约The.Cowboy.Way.1994.东影上译DD2.0-256kbps[新月无恨录制,yuanyiyang调制/01:46:42:438/23.976/BD

    素材由新月版主于2010年录制,躺硬盘里一直未有片源,全网独有。
    匹配:01:46:42:438/23.976/BD
    特别感谢"节奏大佬"友情赞助115 VIP!!!
    对素材提供者和视频提供者一并深表感谢。

    本音轨只在【cnlang.org】交流发布,为避免被马上搬运走,暂设权限90
    严禁任何形式的提取再加工,转载,合成发布,多谢配合




    《乡巴佬征服纽约》由Gregg Champion执导,伍迪·哈里森和基弗·萨瑟兰出演的动作片,于1994年上映。该片讲述了Sonny和Pepper这一对好兄弟来到纽约城的故事。

    导演: 格雷格·钱皮恩
    编剧: Robert C. Thompson / William D. Wittliff
    主演: 伍迪·哈里森 / 基弗·萨瑟兰 / 迪伦·麦克德莫特 / 埃涅·赫德森
    类型: 剧情 / 喜剧 / 动作
    制片国家/地区: 美国
    语言: 英语
    上映日期: 1994-06-03
    片长: 102 分钟
    又名: 牛仔路 / 反转纽约
    IMDb链接: tt0109493
    生成信息: movieinfo
    资源名称: 乡巴佬征服纽约.The.Cowboy.Way.1994
    豆瓣评分: 6.5

    乡巴佬征服纽约的剧情简介 · · · · · ·

           冷静沉着的硬汉牛仔桑尼(基弗·萨瑟兰)和鲁莽行事人如其名的二楞子牛仔辣椒(伍迪·哈里森),原在家乡过着单纯的牧场生活,但好友纳秋上纽约接女儿后一去不返,二人决定北上五光十色的纽约寻找老友。乍到繁荣都市的二个乡巴佬,自然是闹了许多笑话,着实让做作的纽约人瞠目结舌。两人查访之下,得知纳秋已付五千元给一黑社会分子史达克,请他从吉巴将女儿泰瑞莎接到美国,但贪婪凶残的史达克在其女到达纽约之后,要求纳秋再付五千元,并将他杀害,把泰瑞莎视为禁婪,限制其行动。桑尼得知真相,悲愤不已,不惜典当长年视若生命的「牛仔大赛冠军带」,将纳秋生前质押的枪枝赎回,欲替老友报仇。原本吊儿郎当状况百出的辣椒见状,也收起顽皮本性,不再惹事。最后和桑尼连手缉凶,两人同心协力加上一慹心警察义助之下,终于制伏歹徒,救出泰瑞莎。

    General
    Complete name                  : G:\素材\乡巴佬征服纽约/牛仔路/反转纽约The.Cowboy.Way.1994.东影上译DD2.0-256kbps[新月无恨录制,yuanyiyang调制/01:46:42:438/23.976/BD].ac3
    Format                         : AC-3
    Format/Info                    : Audio Coding 3
    Commercial name                : Dolby Digital
    File size                      : 195 MiB
    Duration                       : 1 h 46 min
    Overall bit rate mode          : Constant
    Overall bit rate               : 256 kb/s

    Audio
    Format                         : AC-3
    Format/Info                    : Audio Coding 3
    Commercial name                : Dolby Digital
    Duration                       : 1 h 46 min
    Bit rate mode                  : Constant
    Bit rate                       : 256 kb/s
    Channel(s)                     : 2 channels
    Channel layout                 : L R
    Sampling rate                  : 48.0 kHz
    Frame rate                     : 31.250 FPS (1536 SPF)
    Bit depth                      : 16 bits
    Compression mode               : Lossy
    Stream size                    : 195 MiB (100%)
    Service kind                   : Complete Main



    General
    Unique ID                      : 207996904111483875784340160100830504956 (0x9C7ABF20F80697C5B7252A1922E367FC)
    Complete name                  : G:\乡巴佬征服纽约The.Cowboy.Way.1994.1080p.BluRay.x264.mkv
    Format                         : Matroska
    Format version                 : Version 4
    File size                      : 7.65 GiB
    Duration                       : 1 h 46 min
    Overall bit rate               : 10.3 Mb/s
    Encoded date                   : UTC 2018-03-30 04:56:51
    Writing application            : mkvmerge v17.0.0 ('Be Ur Friend') 64-bit
    Writing library                : libebml v1.3.5 + libmatroska v1.4.8

    Video
    ID                             : 1
    Format                         : AVC
    Format/Info                    : Advanced Video Codec
    Format profile                 : [email protected]
    Format settings                : CABAC / 4 Ref Frames
    Format settings, CABAC         : Yes
    Format settings, ReFrames      : 4 frames
    Codec ID                       : V_MPEG4/ISO/AVC
    Duration                       : 1 h 46 min
    Bit rate                       : 9 493 kb/s
    Width                          : 1 920 pixels
    Height                         : 1 040 pixels
    Display aspect ratio           : 1.85:1
    Frame rate mode                : Constant
    Frame rate                     : 23.976 (24000/1001) FPS
    Color space                    : YUV
    Chroma subsampling             : 4:2:0
    Bit depth                      : 8 bits
    Scan type                      : Progressive
    Bits/(Pixel*Frame)             : 0.198
    Stream size                    : 7.07 GiB (92%)
    Writing library                : x264 core 155 r2901 7d0ff22
    Encoding settings              : cabac=1 / ref=4 / deblock=1:0:0 / analyse=0x3:0x113 / me=umh / subme=8 / psy=1 / psy_rd=1.00:0.00 / mixed_ref=1 / me_range=16 / chroma_me=1 / trellis=2 / 8x8dct=1 / cqm=0 / deadzone=21,11 / fast_pskip=0 / chroma_qp_offset=-2 / threads=12 / lookahead_threads=2 / sliced_threads=0 / nr=0 / decimate=1 / interlaced=0 / bluray_compat=0 / constrained_intra=0 / bframes=3 / b_pyramid=2 / b_adapt=1 / b_bias=0 / direct=1 / weightb=1 / open_gop=0 / weightp=2 / keyint=250 / keyint_min=23 / scenecut=40 / intra_refresh=0 / rc_lookahead=50 / rc=2pass / mbtree=1 / bitrate=9493 / ratetol=1.0 / qcomp=0.60 / qpmin=0 / qpmax=69 / qpstep=4 / cplxblur=20.0 / qblur=0.5 / ip_ratio=1.40 / aq=1:1.00
    Default                        : Yes
    Forced                         : No

    Audio
    ID                             : 2
    Format                         : DTS
    Format/Info                    : Digital Theater Systems
    Codec ID                       : A_DTS
    Duration                       : 1 h 46 min
    Bit rate mode                  : Constant
    Bit rate                       : 768 kb/s
    Channel(s)                     : 6 channels
    Channel layout                 : C L R Ls Rs LFE
    Sampling rate                  : 48.0 kHz
    Frame rate                     : 93.750 FPS (512 SPF)
    Bit depth                      : 24 bits
    Compression mode               : Lossy
    Stream size                    : 586 MiB (7%)
    Language                       : English
    Default                        : Yes
    Forced                         : No

    音轨:含磁链,为避免被马上搬运走,暂设权限90
    游客,如果您要查看本帖隐藏内容请回复

    本帖子中包含更多资源

    您需要 登录 才可以下载或查看,没有帐号?立即注册

    x

    评分

    参与人数 1威望 +30 大洋 +200 收起 理由
    dunfeng + 30 + 200 很给力!

    查看全部评分

  • TA的每日心情
    开心
    20-3-9 15:15
  • 签到天数: 1112 天

    [LV.10]以坛为家III

    31

    主题

    4619

    帖子

    4824

    积分

    超级版主

    Rank: 18Rank: 18Rank: 18Rank: 18Rank: 18

    大洋
    83149
    矿工
    50
    发表于 20-3-2 15:17 | 显示全部楼层
    牛啊!全网独有,录制的调制的大佬们辛苦啦!
    如果你需要音轨、视频、字幕等等资源,请到资源求助区
    回复 支持 反对

    使用道具 举报

  • TA的每日心情
    难过
    20-3-29 10:25
  • 签到天数: 33 天

    [LV.5]常住居民I

    15

    主题

    4122

    帖子

    448

    积分

    排长

    Rank: 3Rank: 3

    大洋
    5480
    矿工
    0

    灌水之王

    发表于 20-3-2 15:40 | 显示全部楼层
    大佬们辛苦啦
    回复 支持 反对

    使用道具 举报

  • TA的每日心情
    开心
    20-3-30 00:28
  • 签到天数: 36 天

    [LV.5]常住居民I

    72

    主题

    518

    帖子

    149

    积分

    班长

    Rank: 2

    大洋
    575
    矿工
    0
    发表于 20-3-2 15:47 | 显示全部楼层
    制作辛苦啦,这个片很搞笑,值得收藏。
    回复 支持 反对

    使用道具 举报

  • TA的每日心情
    擦汗
    20-3-29 09:48
  • 签到天数: 33 天

    [LV.5]常住居民I

    0

    主题

    344

    帖子

    143

    积分

    班长

    Rank: 2

    大洋
    717
    矿工
    26
    发表于 20-3-2 16:12 | 显示全部楼层
    老电影再看看
    回复 支持 反对

    使用道具 举报

  • TA的每日心情
    慵懒
    20-3-29 08:20
  • 签到天数: 791 天

    [LV.10]以坛为家III

    960

    主题

    3668

    帖子

    1737

    积分

    营长

    Rank: 5Rank: 5

    大洋
    7215
    矿工
    5
    发表于 20-3-2 16:54 | 显示全部楼层
    这个太好看了,居然也有了好棒
    回复 支持 反对

    使用道具 举报

  • TA的每日心情
    开心
    20-3-29 06:24
  • 签到天数: 207 天

    [LV.7]常住居民III

    18

    主题

    4376

    帖子

    650

    积分

    连长

    Rank: 4

    大洋
    1105
    矿工
    30
    发表于 20-3-2 17:35 | 显示全部楼层
    为全网独有的资源点赞。辛苦了,又推出了一部好作品。
    回复 支持 反对

    使用道具 举报

  • TA的每日心情
    无聊
    20-3-30 00:00
  • 签到天数: 595 天

    [LV.9]以坛为家II

    0

    主题

    1815

    帖子

    1039

    积分

    营长

    Rank: 5Rank: 5

    大洋
    5790
    矿工
    45
    发表于 20-3-2 18:31 | 显示全部楼层
    没看过 支持一下
    回复 支持 反对

    使用道具 举报

  • TA的每日心情
    开心
    20-3-29 07:41
  • 签到天数: 119 天

    [LV.6]常住居民II

    1

    主题

    1106

    帖子

    223

    积分

    排长

    Rank: 3Rank: 3

    大洋
    32
    矿工
    18
    发表于 20-3-2 19:10 | 显示全部楼层
    伍迪·哈里森有种牛仔的气质
    回复 支持 反对

    使用道具 举报

  • TA的每日心情
    开心
    20-3-29 09:47
  • 签到天数: 1191 天

    [LV.10]以坛为家III

    5

    主题

    1万

    帖子

    7139

    积分

    旅长

    Rank: 7Rank: 7Rank: 7

    大洋
    112528
    矿工
    50

    灌水之王热心会员论坛元老爱心大使

    发表于 20-3-2 19:30 | 显示全部楼层
    看看乡巴佬怎样征服纽约
    回复 支持 反对

    使用道具 举报

  • TA的每日心情

    20-3-29 14:10
  • 签到天数: 1049 天

    [LV.10]以坛为家III

    305

    主题

    9637

    帖子

    9849

    积分

    旅长

    Rank: 7Rank: 7Rank: 7

    大洋
    33888
    矿工
    50

    灌水之王热心会员论坛元老王者至尊富甲天下爱心大使

    发表于 20-3-2 19:50 | 显示全部楼层
    我觉得伍迪越老越有味道了,蛮喜欢这个演员,感谢老大分享。。。。。。。。。。
    完美的影片应该是蓝光4K视频+次世代原声+次时代国语+国配特效字幕+原盘特效字幕+特效注释字幕
    回复 支持 反对

    使用道具 举报

  • TA的每日心情
    开心
    20-3-29 07:45
  • 签到天数: 829 天

    [LV.10]以坛为家III

    3

    主题

    4061

    帖子

    664

    积分

    连长

    Rank: 4

    大洋
    15615
    矿工
    45
    发表于 20-3-2 21:37 | 显示全部楼层
    谢谢好运超版调制分享稀有资源!
    回复 支持 反对

    使用道具 举报

  • TA的每日心情
    无聊
    20-3-29 10:28
  • 签到天数: 501 天

    [LV.9]以坛为家II

    7

    主题

    4938

    帖子

    3138

    积分

    团长

    Rank: 6Rank: 6

    大洋
    15427
    矿工
    45

    灌水之王

    QQ
    发表于 20-3-2 22:15 | 显示全部楼层
    谢谢辛苦调制
    回复 支持 反对

    使用道具 举报

  • TA的每日心情
    难过
    19-10-30 17:42
  • 签到天数: 47 天

    [LV.5]常住居民I

    2

    主题

    1038

    帖子

    1077

    积分

    营长

    Rank: 5Rank: 5

    大洋
    2667
    矿工
    37
    发表于 20-3-3 08:41 | 显示全部楼层
    要是谁能弄出中文字幕就好了
    回复 支持 反对

    使用道具 举报

  • TA的每日心情
    开心
    20-3-29 09:42
  • 签到天数: 1193 天

    [LV.10]以坛为家III

    3

    主题

    2658

    帖子

    1万

    积分

    旅长

    Rank: 7Rank: 7Rank: 7

    大洋
    3552
    矿工
    50
    发表于 20-3-3 13:19 | 显示全部楼层
    希望有降低权限的一天。
      
    回复 支持 反对

    使用道具 举报

  • TA的每日心情
    开心
    20-3-29 10:56
  • 签到天数: 33 天

    [LV.5]常住居民I

    1

    主题

    283

    帖子

    48

    积分

    列兵

    Rank: 1

    大洋
    85
    矿工
    4
    发表于 20-3-3 17:08 | 显示全部楼层
    征服纽约,脑洞有点意思,辛苦制作了
    回复 支持 反对

    使用道具 举报

  • TA的每日心情
    慵懒
    20-3-29 07:08
  • 签到天数: 362 天

    [LV.8]以坛为家I

    4

    主题

    960

    帖子

    286

    积分

    排长

    Rank: 3Rank: 3

    大洋
    1807
    矿工
    30
    发表于 20-3-3 18:00 | 显示全部楼层
    这个电影我早下载了,至今没有字幕
    我是你的
    回复 支持 反对

    使用道具 举报

  • TA的每日心情
    开心
    20-3-27 08:25
  • 签到天数: 23 天

    [LV.4]偶尔看看III

    1

    主题

    216

    帖子

    24

    积分

    列兵

    Rank: 1

    大洋
    396
    矿工
    0
    发表于 20-3-4 08:37 | 显示全部楼层
    很经典哦!谢谢分享
    回复 支持 反对

    使用道具 举报

  • TA的每日心情
    开心
    20-3-29 08:06
  • 签到天数: 454 天

    [LV.9]以坛为家II

    1

    主题

    817

    帖子

    275

    积分

    排长

    Rank: 3Rank: 3

    大洋
    6532
    矿工
    30
    发表于 20-3-4 08:54 | 显示全部楼层
    谢谢楼主分享国配资源
    回复 支持 反对

    使用道具 举报

  • TA的每日心情
    开心
    20-3-30 00:02
  • 签到天数: 713 天

    [LV.9]以坛为家II

    67

    主题

    3323

    帖子

    3159

    积分

    团长

    Rank: 6Rank: 6

    大洋
    13740
    矿工
    49
    发表于 20-3-4 20:49 | 显示全部楼层
    故事情节不错。感谢版主分享!
    回复 支持 反对

    使用道具 举报

    您需要登录后才可以回帖 登录 | 立即注册

    本版积分规则

    Archiver|手机版|cnlang.org

    GMT+8, 20-3-30 05:45 , Processed in 0.024322 second(s), 12 queries , Gzip On, MemCache On.

    Powered by Discuz! X3.4

    © 2001-2018 Comsenz Inc.

    快速回复 返回顶部 返回列表