国语视界

 找回密码
 立即注册
搜索
查看: 192|回复: 24

[调制] 头条大新闻/冤家三文治/再续前缘/头条新闻Switching.Channels.1988.上译DD2.0-224Kbps

[复制链接]
  • TA的每日心情
    无聊
    17-1-24 08:24
  • 签到天数: 28 天

    [LV.4]偶尔看看III

    1600

    主题

    2465

    帖子

    1万

    积分

    超级版主

    Rank: 18Rank: 18Rank: 18Rank: 18Rank: 18

    大洋
    567489
    矿工
    49

    突出贡献皇马褂超级版主

    发表于 20-3-19 19:07 | 显示全部楼层 |阅读模式
    头条大新闻/冤家三文治/再续前缘/头条新闻Switching.Channels.1988.上译DD2.0-224Kbps.[幸福人生提取,yuanyiyang调制/01:44:51:625/23.976/WEB-DL

    素材由幸福人生版主提供
    匹配:01:44:51:625/23.976/WEB-DL
    特别感谢"节奏版主"友情赞助115 VIP!!!
    对素材提供者和视频提供者一并深表感谢。

    本音轨只在【cnlang.org】交流发布,权限70
    严禁任何形式的提取再加工,转载,合成发布,多谢配合




    《头条大新闻》是特德 科特切夫(Ted Kotcheff)导演的喜剧片,凯萨琳.特纳,克里斯托弗.里夫等主演。
    《头条大新闻》讲述芝加哥有线电视台的记者克丽丝蒂,正准备跟爱人前往纽约定居,新闻部主管想留住这位一流的记者,乃说服她临走之前到监狱中采访罪犯,没想到罪犯逃狱,引来了一阵混乱。

    导演: 特德·科特切夫
    编剧: 本·赫克特 / 查尔斯·麦克阿瑟 / Jonathan Reynolds
    主演: Kathleen Turner / Burt Reynolds / Christopher Reeve
    类型: 喜剧 / 犯罪
    制片国家/地区: 美国
    语言: 英语
    上映日期: 1988-03-04
    片长: 105 分钟
    又名: 冤家三文治 / 再续前缘 / 头条新闻
    IMDb链接: tt0096203
    生成信息: movieinfo
    资源名称: 头条大新闻.Switching.Channels.1988

    头条大新闻的剧情简介 · · · · · ·
       
          根据讽刺新闻界的经典喜剧《满城风雨》重新翻拍,但是将报社背景改为更加分秘必争的电视台新闻部。凯萨琳.特纳饰演芝加哥有线电视台的记者克丽丝蒂,正准备跟爱人(克里斯托弗.里夫饰)前往纽约定居,新闻部主管(伯特.雷诺兹饰)想留住这位一流的记者,乃说服她临走之前到监狱中采访罪犯(亨利.吉布森饰),没想到罪犯逃狱,引来了一阵混乱。导演特德.科特切夫以漫画式手法对电视新闻的炒作风气加以冷嘲热讽,加上四位主角的表演都相当出色,使全片笑声不断,娱乐效果颇佳。

    General
    Complete name                  : G:\素材\头条大新闻/冤家三文治/再续前缘/头条新闻Switching.Channels.1988.上译DD2.0-224Kbps.[幸福人生提取,yuanyiyang调制/01:44:51:625/23.976/WEB-DL].ac3
    Format                         : AC-3
    Format/Info                    : Audio Coding 3
    Commercial name                : Dolby Digital
    File size                      : 168 MiB
    Duration                       : 1 h 44 min
    Overall bit rate mode          : Constant
    Overall bit rate               : 224 kb/s

    Audio
    Format                         : AC-3
    Format/Info                    : Audio Coding 3
    Commercial name                : Dolby Digital
    Duration                       : 1 h 44 min
    Bit rate mode                  : Constant
    Bit rate                       : 224 kb/s
    Channel(s)                     : 2 channels
    Channel layout                 : L R
    Sampling rate                  : 48.0 kHz
    Frame rate                     : 31.250 FPS (1536 SPF)
    Bit depth                      : 16 bits
    Compression mode               : Lossy
    Stream size                    : 168 MiB (100%)
    Service kind                   : Complete Main

    General
    Unique ID                      : 331086769322457603346226243536280093947 (0xF914FE08DEE173AFA84E13B645BC04FB)
    Complete name                  : G:\头条大新闻Switching.Channels.1988.1080p.WEB-DL.AAC2.0.H.264.mkv
    Format                         : Matroska
    Format version                 : Version 4
    File size                      : 4.00 GiB
    Duration                       : 1 h 44 min
    Overall bit rate               : 5 457 kb/s
    Movie name                     : Switching.Channels.1988.1080p.WEB-DL.AAC2.0.H.264
    Encoded date                   : UTC 2018-03-29 10:24:16
    Writing application            : mkvmerge v21.0.0 ('Tardigrades Will Inherit The Earth') 64-bit
    Writing library                : libebml v1.3.5 + libmatroska v1.4.8
    Cover                          : Yes
    Attachments                    : small_cover_land.jpg / cover.jpg / cover_land.jpg / small_cover.jpg

    Video
    ID                             : 1
    Format                         : AVC
    Format/Info                    : Advanced Video Codec
    Format profile                 : [email protected]
    Format settings                : CABAC / 4 Ref Frames
    Format settings, CABAC         : Yes
    Format settings, ReFrames      : 4 frames
    Codec ID                       : V_MPEG4/ISO/AVC
    Duration                       : 1 h 44 min
    Bit rate                       : 5 333 kb/s
    Width                          : 1 908 pixels
    Height                         : 1 076 pixels
    Display aspect ratio           : 16:9
    Frame rate mode                : Constant
    Frame rate                     : 23.976 (23976/1000) FPS
    Color space                    : YUV
    Chroma subsampling             : 4:2:0
    Bit depth                      : 8 bits
    Scan type                      : Progressive
    Bits/(Pixel*Frame)             : 0.108
    Stream size                    : 3.91 GiB (98%)
    Title                          : Switching.Channels.1988.1080p.WEB-DL.AAC2.0.H.264
    Language                       : English
    Default                        : Yes
    Forced                         : No
    Color range                    : Limited
    Color primaries                : BT.709
    Transfer characteristics       : BT.709
    Matrix coefficients            : BT.709

    Audio
    ID                             : 2
    Format                         : AAC LC
    Format/Info                    : Advanced Audio Codec Low Complexity
    Codec ID                       : A_AAC-2
    Duration                       : 1 h 44 min
    Bit rate                       : 121 kb/s
    Channel(s)                     : 2 channels
    Channel layout                 : L R
    Sampling rate                  : 48.0 kHz
    Frame rate                     : 46.875 FPS (1024 SPF)
    Compression mode               : Lossy
    Delay relative to video        : -42 ms
    Stream size                    : 90.9 MiB (2%)
    Title                          : Switching.Channels.1988.1080p.WEB-DL.AAC2.0.H.264
    Language                       : English
    Default                        : Yes
    Forced                         : No

    Text
    ID                             : 3
    Format                         : UTF-8
    Codec ID                       : S_TEXT/UTF8
    Codec ID/Info                  : UTF-8 Plain Text
    Duration                       : 1 h 42 min
    Bit rate                       : 73 b/s
    Count of elements              : 2009
    Stream size                    : 55.2 KiB (0%)
    Language                       : English
    Default                        : Yes
    Forced                         : No

    音轨:含磁链,权限70
    游客,如果您要查看本帖隐藏内容请回复

    本帖子中包含更多资源

    您需要 登录 才可以下载或查看,没有帐号?立即注册

    x

    点评

    “国语视界欢迎您,国语视界出品”!?这个水印是否台唐突了点。具体意见见5L  发表于 20-3-21 01:16

    评分

    参与人数 1威望 +30 大洋 +168 收起 理由
    dunfeng + 30 + 168 很给力!

    查看全部评分

  • TA的每日心情
    开心
    20-3-29 07:45
  • 签到天数: 829 天

    [LV.10]以坛为家III

    3

    主题

    4061

    帖子

    664

    积分

    连长

    Rank: 4

    大洋
    15615
    矿工
    45
    发表于 20-3-19 19:19 | 显示全部楼层
    首席支持好运超版,谢谢调制分享稀有资源!
    回复 支持 反对

    使用道具 举报

  • TA的每日心情

    20-3-29 09:35
  • 签到天数: 102 天

    [LV.6]常住居民II

    21

    主题

    944

    帖子

    204

    积分

    排长

    Rank: 3Rank: 3

    大洋
    37
    矿工
    12
    发表于 20-3-19 19:24 | 显示全部楼层
    很有生气的题材,多谢调配分享
    回复 支持 反对

    使用道具 举报

  • TA的每日心情
    擦汗
    20-3-30 00:47
  • 签到天数: 1212 天

    [LV.10]以坛为家III

    12

    主题

    1937

    帖子

    7043

    积分

    旅长

    Rank: 7Rank: 7Rank: 7

    大洋
    39257
    矿工
    50
    发表于 20-3-19 19:44 | 显示全部楼层
    1988年的国配,估计腔调比较重,先看看

    谢谢分享
    回复 支持 反对

    使用道具 举报

  • TA的每日心情
    擦汗
    20-3-30 00:47
  • 签到天数: 1212 天

    [LV.10]以坛为家III

    12

    主题

    1937

    帖子

    7043

    积分

    旅长

    Rank: 7Rank: 7Rank: 7

    大洋
    39257
    矿工
    50
    发表于 20-3-19 19:44 | 显示全部楼层
    本帖最后由 hanzi 于 20-3-21 01:15 编辑

    才发现自己发重了,重新编辑下,关于音轨水印。

    “国语视界欢迎您,国语视界出品”?加水印不反对,但是这个水印家的目的是什么,广告?防窃?

    如果是广告,还请版主提供一个无广告版,之所以称为广告是因为加入的方式太过蛮横粗暴,对原音轨作品缺乏尊重。

    如果是防窃,也请可以提供一个隐秘版本,只要能达到分辨识别目的即可,而不是这样的效果。
    回复 支持 反对

    使用道具 举报

  • TA的每日心情
    开心
    20-3-30 00:02
  • 签到天数: 510 天

    [LV.9]以坛为家II

    2

    主题

    2339

    帖子

    1231

    积分

    营长

    Rank: 5Rank: 5

    大洋
    167
    矿工
    30
    发表于 20-3-19 19:56 | 显示全部楼层
    感觉不错的喜剧电影,谢谢版主分享
    回复 支持 反对

    使用道具 举报

  • TA的每日心情
    开心
    20-3-29 19:38
  • 签到天数: 289 天

    [LV.8]以坛为家I

    1

    主题

    527

    帖子

    339

    积分

    排长

    Rank: 3Rank: 3

    大洋
    2897
    矿工
    5
    发表于 20-3-19 20:03 | 显示全部楼层
    怎么冷门的电影竟然有国配,谢谢分享
    回复 支持 反对

    使用道具 举报

  • TA的每日心情
    开心
    20-3-29 09:47
  • 签到天数: 1191 天

    [LV.10]以坛为家III

    5

    主题

    1万

    帖子

    7139

    积分

    旅长

    Rank: 7Rank: 7Rank: 7

    大洋
    112528
    矿工
    50

    灌水之王热心会员论坛元老爱心大使

    发表于 20-3-19 20:11 | 显示全部楼层
    这片子不错,犯罪类型的喜剧,视频正在下载中
    回复 支持 反对

    使用道具 举报

  • TA的每日心情
    无聊
    20-3-29 10:28
  • 签到天数: 501 天

    [LV.9]以坛为家II

    7

    主题

    4938

    帖子

    3138

    积分

    团长

    Rank: 6Rank: 6

    大洋
    15427
    矿工
    45

    灌水之王

    QQ
    发表于 20-3-19 20:17 | 显示全部楼层
    这个片子不错  谢谢分享
    回复 支持 反对

    使用道具 举报

  • TA的每日心情
    无聊
    20-3-29 09:38
  • 签到天数: 2 天

    [LV.1]初来乍到

    0

    主题

    378

    帖子

    41

    积分

    列兵

    Rank: 1

    大洋
    400
    矿工
    0
    发表于 20-3-19 22:00 | 显示全部楼层
    这个竟然有国配,好棒
    回复 支持 反对

    使用道具 举报

  • TA的每日心情
    开心
    20-3-30 00:28
  • 签到天数: 36 天

    [LV.5]常住居民I

    72

    主题

    518

    帖子

    149

    积分

    班长

    Rank: 2

    大洋
    575
    矿工
    0
    发表于 20-3-19 22:13 | 显示全部楼层
    这么经典的老片也能找到国语,楼主实在太强了。
    回复 支持 反对

    使用道具 举报

  • TA的每日心情
    开心
    20-3-29 06:24
  • 签到天数: 207 天

    [LV.7]常住居民III

    18

    主题

    4376

    帖子

    650

    积分

    连长

    Rank: 4

    大洋
    1105
    矿工
    30
    发表于 20-3-19 22:16 | 显示全部楼层
    电影很吸引人,豆瓣评分不错,可惜权限高了。
    回复 支持 反对

    使用道具 举报

  • TA的每日心情
    无聊
    20-3-30 01:23
  • 签到天数: 26 天

    [LV.4]偶尔看看III

    1

    主题

    1359

    帖子

    149

    积分

    班长

    Rank: 2

    大洋
    63
    矿工
    0
    发表于 20-3-20 00:19 | 显示全部楼层
    不错 支持一下
    回复 支持 反对

    使用道具 举报

  • TA的每日心情
    开心
    20-3-28 07:16
  • 签到天数: 599 天

    [LV.9]以坛为家II

    1

    主题

    849

    帖子

    7024

    积分

    旅长

    Rank: 7Rank: 7Rank: 7

    大洋
    5313
    矿工
    50
    发表于 20-3-20 08:38 | 显示全部楼层
    感谢大神制作辛苦了谢谢下载看看.........
    回复 支持 反对

    使用道具 举报

  • TA的每日心情
    开心
    20-3-29 09:00
  • 签到天数: 264 天

    [LV.8]以坛为家I

    0

    主题

    452

    帖子

    133

    积分

    班长

    Rank: 2

    大洋
    490
    矿工
    20
    QQ
    发表于 20-3-20 08:44 | 显示全部楼层
    撸主辛苦
    回复

    使用道具 举报

  • TA的每日心情
    开心
    20-3-27 09:59
  • 签到天数: 655 天

    [LV.9]以坛为家II

    0

    主题

    768

    帖子

    94

    积分

    列兵

    Rank: 1

    大洋
    2293
    矿工
    0
    发表于 20-3-20 09:02 | 显示全部楼层
    不错的喜剧片,上译配音很棒
    回复 支持 反对

    使用道具 举报

  • TA的每日心情
    开心
    20-3-29 19:34
  • 签到天数: 1058 天

    [LV.10]以坛为家III

    1

    主题

    1848

    帖子

    7023

    积分

    旅长

    Rank: 7Rank: 7Rank: 7

    大洋
    69959
    矿工
    50
    发表于 20-3-20 09:45 | 显示全部楼层
    难得的上译蓝光音轨。感谢版主制作发布。
    回复 支持 反对

    使用道具 举报

  • TA的每日心情
    开心
    20-3-29 10:12
  • 签到天数: 772 天

    [LV.10]以坛为家III

    2

    主题

    1128

    帖子

    350

    积分

    排长

    Rank: 3Rank: 3

    大洋
    23287
    矿工
    49
    发表于 20-3-20 11:29 | 显示全部楼层
    不知道够不够权限啊?
    回复 支持 反对

    使用道具 举报

  • TA的每日心情
    无聊
    20-3-29 09:38
  • 签到天数: 2 天

    [LV.1]初来乍到

    0

    主题

    378

    帖子

    41

    积分

    列兵

    Rank: 1

    大洋
    400
    矿工
    0
    发表于 20-3-20 12:47 | 显示全部楼层
    感谢制作国语音轨,收藏了
    回复 支持 反对

    使用道具 举报

  • TA的每日心情
    开心
    19-4-28 08:24
  • 签到天数: 453 天

    [LV.9]以坛为家II

    234

    主题

    2146

    帖子

    3002

    积分

    工作组

    Rank: 14Rank: 14Rank: 14Rank: 14

    大洋
    162212
    矿工
    50
    发表于 20-3-20 17:21 | 显示全部楼层
    还有超人出演……一晃好多年,超人也去了
    回复 支持 反对

    使用道具 举报

    您需要登录后才可以回帖 登录 | 立即注册

    本版积分规则

    Archiver|手机版|cnlang.org

    GMT+8, 20-3-30 05:54 , Processed in 0.023478 second(s), 12 queries , Gzip On, MemCache On.

    Powered by Discuz! X3.4

    © 2001-2018 Comsenz Inc.

    快速回复 返回顶部 返回列表