国语视界

 找回密码
 立即注册
搜索
查看: 61|回复: 9

[调制] 假面骑士Build E06.憤怒的月面空翻.Kamen Rider Build 2017 台配DD2.0-256Kbps

[复制链接]
  • TA的每日心情
    无聊
    20-3-29 19:59
  • 签到天数: 1206 天

    [LV.10]以坛为家III

    967

    主题

    3216

    帖子

    5773

    积分

    团长

    Rank: 6Rank: 6

    大洋
    204496
    矿工
    50
    发表于 20-3-20 21:07 | 显示全部楼层 |阅读模式
    假面骑士Build 仮面ライダービルド (2017(台配国语全49集)魔术小子MK 提取\假面骑士Build E06.憤怒的月面空翻.Kamen Rider Build 2017 台配DD2.0-256Kbps.[魔术小子MK提取,yuanyiyang调制/00:23:30:010/23.976/BD].ac3

    国配素材来自魔术小子MK提供
    调制者:yuanyiyang
    特别鸣谢"节奏大神"友情赞助115VIP充值!,匹配:00:23:30:010/23.976/BD
    对素材提供者、调制者和视频提供者一并深表感谢,代为发布,失效请坛内消息告知。
    稀有资源,首发音轨,权限60,每集收取100大洋

    本音轨只在【cnlang.org】交流发布
    严禁任何形式的提取再加工,转载,合成发布,多谢配合。


    导演: 田崎龙太 / 上堀内佳寿也 / 诸田敏 / 中泽祥次郎 / 山口恭平 / 柴崎贵行
    编剧: 武藤将吾
    主演: 犬饲贵丈 / 赤楚卫二 / 高田夏帆 / 越智友己 / 泷裕可里 / 更多...
    类型: 剧情 / 科幻
    官方网站: www.tv-asahi.co.jp/build/
    制片国家/地区: 日本
    语言: 日语
    首播: 2017-09-03(日本)
    集数: 49
    单集片长: 23分钟
    又名: Kamen Rider Build
    IMDb链接: tt6982472
    生成信息: movieinfo
    资源名称: 假面骑士Build.假面骑士Build.2017
    豆瓣评分: 8.7

    假面骑士Build的剧情简介 · · · · · ·
      在火星发现的神秘箱子――“潘多拉魔盒”打开的瞬间,巨大的墙壁突然出现!故事由此开始。被称为“天空之墙”的墙壁把日本列岛分割为三部分,并由此诞生了各自的首都「东都」「西都」「北都」。 其中在“东都”有被称为Smash的未确认生命体出现并暗中把人类逼入绝境。挡在Smash面前而出现的,是一位青年,其腰上戴着腰带、 手上握着不可思议的瓶子 。「变身!」―― 青年天才物理学者变身为假面骑士Build,阻挡在Smash的面前!

    音轨信息:

    General
    Complete name                  : G:\假面骑士Build 仮面ライダービルド (2017(台配国语全49集)魔术小子MK 提取\假面骑士Build E06.憤怒的月面空翻.Kamen Rider Build 2017 台配DD2.0-256Kbps.[魔术小子MK提取,yuanyiyang调制/00:23:30:010/23.976/BD].ac3
    Format                         : AC-3
    Format/Info                    : Audio Coding 3
    Commercial name                : Dolby Digital
    File size                      : 42.7 MiB
    Duration                       : 23 min 20 s
    Overall bit rate mode          : Constant
    Overall bit rate               : 256 kb/s

    Audio
    Format                         : AC-3
    Format/Info                    : Audio Coding 3
    Commercial name                : Dolby Digital
    Duration                       : 23 min 20 s
    Bit rate mode                  : Constant
    Bit rate                       : 256 kb/s
    Channel(s)                     : 2 channels
    Channel layout                 : L R
    Sampling rate                  : 48.0 kHz
    Frame rate                     : 31.250 FPS (1536 SPF)
    Bit depth                      : 16 bits
    Compression mode               : Lossy
    Stream size                    : 42.7 MiB (100%)
    Service kind                   : Complete Main

    视频信息:

    General
    Unique ID                      : 114260816479893304749701919425399880751 (0x55F5D531E9F739229BF70F6D6E7BFC2F)
    Complete name                  : G:\新建文件夹 (8)\假面骑士Build 仮面ライダービルド (2017(台配国语)魔术小子MK 提取\新建文件夹\[OZC-Live]KamenRiderBuildBDBoxE06'FuriousMoonsault'[1080p].mkv
    Format                         : Matroska
    Format version                 : Version 4
    File size                      : 930 MiB
    Duration                       : 23 min 30 s
    Overall bit rate               : 5 530 kb/s
    Encoded date                   : UTC 2018-04-23 06:21:50
    Writing application            : mkvmerge v21.0.0 ('Tardigrades Will Inherit The Earth') 64-bit
    Writing library                : libebml v1.3.5 + libmatroska v1.4.8
    Attachments                    : Cabin-Bold.ttf / Cabin-BoldItalic.ttf / Cabin-Regular.ttf / candara.ttf / corbelb.ttf / corbelz_2.ttf / EastHand Font.ttf / EpilepsySans.ttf / EpilepsySansBold.ttf / FOT-RodinWanpakuProUB-NoKanji.ttf / GenBkBasB.ttf / georgiab.ttf / KhmerUIb_0.ttf / Matias Font.ttf / meiryo.ttc / meiryob.ttc / overpass-heavy-italic.otf / Plan G.otf / Prototype.ttf / SourceSansPro-Black.otf / SourceSansPro-BlackIt.otf / SourceSansPro-Bold.otf / SourceSansPro-BoldIt.otf / SourceSansPro-ExtraLight.otf / SourceSansPro-ExtraLightIt.otf / SourceSansPro-It.otf / SourceSansPro-Light.otf / SourceSansPro-LightIt.otf / SourceSansPro-Regular.otf / SourceSansPro-Semibold.otf / SourceSansPro-SemiboldIt.otf / WHIZBANG.TTF / WHIZBB_.TTF / WHIZBO_.TTF

    Video
    ID                             : 1
    Format                         : AVC
    Format/Info                    : Advanced Video Codec
    Format profile                 : [email protected]
    Format settings                : CABAC / 4 Ref Frames
    Format settings, CABAC         : Yes
    Format settings, ReFrames      : 4 frames
    Codec ID                       : V_MPEG4/ISO/AVC
    Duration                       : 23 min 20 s
    Bit rate                       : 5 264 kb/s
    Width                          : 1 920 pixels
    Height                         : 1 080 pixels
    Display aspect ratio           : 16:9
    Frame rate mode                : Constant
    Frame rate                     : 23.976 (24000/1001) FPS
    Color space                    : YUV
    Chroma subsampling             : 4:2:0
    Bit depth                      : 8 bits
    Scan type                      : Progressive
    Bits/(Pixel*Frame)             : 0.106
    Stream size                    : 878 MiB (95%)
    Title                          : Episode 6 - Furious Moonsault
    Writing library                : x264 core 155 r2901 7d0ff22
    Encoding settings              : cabac=1 / ref=4 / deblock=1:-1:-1 / analyse=0x3:0x133 / me=umh / subme=10 / psy=1 / psy_rd=1.00:0.15 / mixed_ref=1 / me_range=24 / chroma_me=1 / trellis=2 / 8x8dct=1 / cqm=0 / deadzone=21,11 / fast_pskip=1 / chroma_qp_offset=-2 / threads=4 / lookahead_threads=1 / sliced_threads=0 / nr=0 / decimate=1 / interlaced=0 / bluray_compat=0 / constrained_intra=0 / bframes=12 / b_pyramid=2 / b_adapt=2 / b_bias=0 / direct=3 / weightb=1 / open_gop=0 / weightp=2 / keyint=240 / keyint_min=22 / scenecut=40 / intra_refresh=0 / rc_lookahead=60 / rc=crf / mbtree=1 / crf=22.5 / qcomp=0.70 / qpmin=0 / qpmax=69 / qpstep=3 / ip_ratio=1.40 / aq=1:1.30
    Language                       : Japanese
    Default                        : Yes
    Forced                         : No

    Audio
    ID                             : 2
    Format                         : AAC LC
    Format/Info                    : Advanced Audio Codec Low Complexity
    Codec ID                       : A_AAC-2
    Duration                       : 23 min 20 s
    Bit rate                       : 165 kb/s
    Channel(s)                     : 2 channels
    Channel layout                 : L R
    Sampling rate                  : 48.0 kHz
    Frame rate                     : 46.875 FPS (1024 SPF)
    Compression mode               : Lossy
    Delay relative to video        : 9 ms
    Stream size                    : 27.5 MiB (3%)
    Title                          : Japanese Stereo 2ch AAC
    Language                       : Japanese
    Default                        : Yes
    Forced                         : No

    Text #1
    ID                             : 3
    Format                         : ASS
    Codec ID                       : S_TEXT/ASS
    Codec ID/Info                  : Advanced Sub Station Alpha
    Duration                       : 23 min 19 s
    Bit rate                       : 268 b/s
    Count of elements              : 542
    Compression mode               : Lossless
    Stream size                    : 45.9 KiB (0%)
    Title                          : English Subtitles (Over-Time)
    Language                       : English
    Default                        : Yes
    Forced                         : No

    Text #2
    ID                             : 4
    Format                         : ASS
    Codec ID                       : S_TEXT/ASS
    Codec ID/Info                  : Advanced Sub Station Alpha
    Duration                       : 23 min 29 s
    Bit rate                       : 199 b/s
    Count of elements              : 442
    Compression mode               : Lossless
    Stream size                    : 34.3 KiB (0%)
    Title                          : English Subtitles (GenmCorp)
    Language                       : English
    Default                        : No
    Forced                         : No

    Menu
    00:00:00.000                   : :Cold Open
    00:02:00.328                   : :Opening Credits
    00:03:20.992                   : art A
    00:08:06.945                   : art B
    00:13:17.004                   : art C
    00:18:43.998                   : art D
    00:23:05.008                   : review

    音轨下载地址(包含视频磁力链接):

    游客,如果您要查看本帖隐藏内容请回复

    本帖子中包含更多资源

    您需要 登录 才可以下载或查看,没有帐号?立即注册

    x

    评分

    参与人数 1大洋 +100 收起 理由
    ll509 + 100 很给力!

    查看全部评分

  • TA的每日心情
    无聊
    20-3-29 10:28
  • 签到天数: 501 天

    [LV.9]以坛为家II

    7

    主题

    4938

    帖子

    3138

    积分

    团长

    Rank: 6Rank: 6

    大洋
    15427
    矿工
    45

    灌水之王

    QQ
    发表于 20-3-20 22:09 | 显示全部楼层
    支持一下  谢谢辛苦调制
    回复 支持 反对

    使用道具 举报

  • TA的每日心情
    开心
    20-3-29 09:47
  • 签到天数: 1191 天

    [LV.10]以坛为家III

    5

    主题

    1万

    帖子

    7139

    积分

    旅长

    Rank: 7Rank: 7Rank: 7

    大洋
    112528
    矿工
    50

    灌水之王热心会员论坛元老爱心大使

    发表于 20-3-21 06:29 | 显示全部楼层
    关注最新的更新
    回复 支持 反对

    使用道具 举报

  • TA的每日心情
    开心
    20-3-30 00:28
  • 签到天数: 36 天

    [LV.5]常住居民I

    72

    主题

    518

    帖子

    149

    积分

    班长

    Rank: 2

    大洋
    575
    矿工
    0
    发表于 20-3-21 08:03 | 显示全部楼层
    这部剧又有更新啦,感谢发布
    回复 支持 反对

    使用道具 举报

  • TA的每日心情
    奋斗
    20-3-29 06:40
  • 签到天数: 396 天

    [LV.9]以坛为家II

    0

    主题

    601

    帖子

    99

    积分

    列兵

    Rank: 1

    大洋
    758
    矿工
    5
    发表于 20-3-21 08:39 | 显示全部楼层
    这个国配的少。
    回复 支持 反对

    使用道具 举报

  • TA的每日心情
    开心
    20-3-29 06:24
  • 签到天数: 207 天

    [LV.7]常住居民III

    18

    主题

    4376

    帖子

    650

    积分

    连长

    Rank: 4

    大洋
    1105
    矿工
    30
    发表于 20-3-21 08:57 | 显示全部楼层
    持续更新好。
    回复 支持 反对

    使用道具 举报

  • TA的每日心情
    开心
    20-3-29 07:41
  • 签到天数: 119 天

    [LV.6]常住居民II

    1

    主题

    1106

    帖子

    223

    积分

    排长

    Rank: 3Rank: 3

    大洋
    32
    矿工
    18
    发表于 20-3-21 09:07 | 显示全部楼层
    为了更多更好的国语资源而努力,谢谢制作
    回复 支持 反对

    使用道具 举报

  • TA的每日心情
    开心
    20-3-29 09:56
  • 签到天数: 387 天

    [LV.9]以坛为家II

    4

    主题

    4097

    帖子

    471

    积分

    排长

    Rank: 3Rank: 3

    大洋
    119
    矿工
    5
    QQ
    发表于 20-3-21 13:05 | 显示全部楼层
    感谢分享台语音轨。好
    回复 支持 反对

    使用道具 举报

  • TA的每日心情
    开心
    20-3-29 00:15
  • 签到天数: 31 天

    [LV.5]常住居民I

    19

    主题

    401

    帖子

    225

    积分

    排长

    Rank: 3Rank: 3

    大洋
    58
    矿工
    2
    发表于 20-3-22 14:16 | 显示全部楼层
    谢谢,好音轨,谢谢楼主。
    回复 支持 反对

    使用道具 举报

  • TA的每日心情
    开心
    20-3-30 00:07
  • 签到天数: 14 天

    [LV.3]偶尔看看II

    6

    主题

    240

    帖子

    51

    积分

    列兵

    Rank: 1

    大洋
    35
    矿工
    5
    发表于 20-3-29 02:55 | 显示全部楼层
    感谢您发布音轨,谢谢
    回复 支持 反对

    使用道具 举报

    您需要登录后才可以回帖 登录 | 立即注册

    本版积分规则

    Archiver|手机版|cnlang.org

    GMT+8, 20-3-30 04:26 , Processed in 0.020903 second(s), 12 queries , Gzip On, MemCache On.

    Powered by Discuz! X3.4

    © 2001-2018 Comsenz Inc.

    快速回复 返回顶部 返回列表