国语视界

 找回密码
 立即注册
查看: 280|回复: 3

[视频技术] 使用反交错滤镜yadif进行双帧速率去隔行

[复制链接]
  • TA的每日心情
    开心
    20-6-1 00:26
  • 签到天数: 750 天

    [LV.10]以坛为家III

    6

    主题

    1256

    帖子

    3221

    积分

    团长

    Rank: 6Rank: 6

    大洋
    35584
    矿工
    50
    发表于 20-4-21 15:22 | 显示全部楼层 |阅读模式
    用ShanaEncoder转了2次,两次转码后的文件和源文件均不同,相差几百毫秒,音画不同步……
    百度搜索后,尝试PR拉伸音轨,前后同步了,中间不同步……

    逆转流星,被称为爱情公寓前传! 爱情公寓的粉丝不容错过……
    此TS应该是目前质量最好的,是隔行的,直接封装成mkv或mp4都会出错!转码后时间不匹配!
    双帧速率去隔行后画面质量有些许提高……学习自itzmx

    请问该怎么处理?或者愿意压制hevc、10bit的高手,我可将此TS上传百度盘!

    General
    ID                             : 1 (0x1)
    Complete name                  : D:\Downloads\EastMovie.In.The.Name.Of.The.Shooting.Star.2008.HDTV.1080i.H264-CZW.ts
    Format                         : MPEG-TS
    File size                      : 4.84 GiB
    Duration                       : 1 h 36 min
    Overall bit rate mode          : Variable
    Overall bit rate               : 7 209 kb/s
    Maximum Overall bit rate       : 35.5 Mb/s

    Video
    ID                             : 4113 (0x1011)
    Menu ID                        : 1 (0x1)
    Format                         : AVC
    Format/Info                    : Advanced Video Codec
    Format profile                 : [email protected]
    Format settings                : CABAC / 4 Ref Frames
    Format settings, CABAC         : Yes
    Format settings, Reference fra : 4 frames
    Codec ID                       : 27
    Duration                       : 1 h 36 min
    Bit rate mode                  : Variable
    Bit rate                       : 6 724 kb/s
    Maximum bit rate               : 40.0 Mb/s
    Width                          : 1 920 pixels
    Height                         : 1 080 pixels
    Display aspect ratio           : 16:9
    Frame rate                     : 25.000 FPS
    Color space                    : YUV
    Chroma subsampling             : 4:2:0
    Bit depth                      : 8 bits
    Scan type                      : MBAFF
    Scan type, store method        : Interleaved fields
    Scan order                     : Top Field First
    Bits/(Pixel*Frame)             : 0.130
    Stream size                    : 4.52 GiB (93%)

    Audio
    ID                             : 4352 (0x1100)
    Menu ID                        : 1 (0x1)
    Format                         : MPEG Audio
    Format version                 : Version 1
    Format profile                 : Layer 2
    Format settings                : Joint stereo
    Codec ID                       : 4
    Duration                       : 1 h 36 min
    Bit rate mode                  : Constant
    Bit rate                       : 128 kb/s
    Channel(s)                     : 2 channels
    Sampling rate                  : 48.0 kHz
    Frame rate                     : 41.667 FPS (1152 SPF)
    Compression mode               : Lossy
    Delay relative to video        : 17 ms
    Stream size                    : 88.1 MiB (2%)

  • TA的每日心情
    开心
    20-5-23 17:57
  • 签到天数: 210 天

    [LV.7]常住居民III

    14

    主题

    395

    帖子

    669

    积分

    连长

    Rank: 4

    大洋
    944
    矿工
    46
    发表于 20-4-29 16:41 | 显示全部楼层
    本帖最后由 bestman 于 20-4-29 16:45 编辑

    去交错效果最好的是QTGMC,当然也可以用tdeint和eedi2来配合,效果其次,
    以上效果都好,但是速度不快, yadif,我是从来不用,效果实在太差了

    本帖子中包含更多资源

    您需要 登录 才可以下载或查看,没有帐号?立即注册

    x
    回复 支持 反对

    使用道具 举报

  • TA的每日心情
    开心
    20-5-23 17:57
  • 签到天数: 210 天

    [LV.7]常住居民III

    14

    主题

    395

    帖子

    669

    积分

    连长

    Rank: 4

    大洋
    944
    矿工
    46
    发表于 20-4-29 16:56 | 显示全部楼层
    本帖最后由 bestman 于 20-4-29 17:01 编辑

    当然也可以用皮神的MP开多进程加速,昨天试了,开了多进程,速度加快了三倍.  
    平平无奇的25帧反交错,其实蕴含很多知识,反而比23帧,29帧的反交错,难度高.
    反交错的目的就是还原母带视频,使他超过DVD硬解的画质.

    至于压制,则是图像准确还原后,用最精巧的参数.压缩图片罢了

    本帖子中包含更多资源

    您需要 登录 才可以下载或查看,没有帐号?立即注册

    x
    回复 支持 反对

    使用道具 举报

  • TA的每日心情
    开心
    20-6-1 00:26
  • 签到天数: 750 天

    [LV.10]以坛为家III

    6

    主题

    1256

    帖子

    3221

    积分

    团长

    Rank: 6Rank: 6

    大洋
    35584
    矿工
    50
     楼主| 发表于 20-4-30 00:04 | 显示全部楼层
    bestman 发表于 20-4-29 16:56
    当然也可以用皮神的MP开多进程加速,昨天试了,开了多进程,速度加快了三倍.  
    平平无奇的25帧反交错,其实蕴含 ...

    对我来说难度太高,看不懂!已经有一位高手在替我试一下啦!
    您感兴趣的话也可以给您百度云链接?!
    回复 支持 反对

    使用道具 举报

    您需要登录后才可以回帖 登录 | 立即注册

    本版积分规则

    Archiver|手机版|cnlang.org

    GMT+8, 20-6-1 14:44 , Processed in 0.020131 second(s), 13 queries , Gzip On, MemCache On.

    Powered by Discuz! X3.4

    © 2001-2018 Comsenz Inc.

    快速回复 返回顶部 返回列表