国语视界

 找回密码
 立即注册
搜索
查看: 344|回复: 15

[技术交流] BDFix到底是怎么了?

[复制链接]
  • TA的每日心情
    奋斗
    19-4-18 00:25
  • 签到天数: 384 天

    [LV.9]以坛为家II

    7

    主题

    461

    帖子

    501

    积分

    连长

    Rank: 4

    大洋
    330
    矿工
    50
    发表于 19-2-7 15:49 | 显示全部楼层 |阅读模式
    本帖最后由 tdli 于 19-2-8 13:54 编辑

    以前一直用BDFix封装电影,可最近也不知道是怎么了,用BDFix封装一次都不成功......

    替换一条字幕,如果点确定继续封装,封装完的片子只能播放个片头

    本帖子中包含更多资源

    您需要 登录 才可以下载或查看,没有帐号?立即注册

    x
  • TA的每日心情
    擦汗
    19-3-29 13:30
  • 签到天数: 572 天

    [LV.9]以坛为家II

    13

    主题

    653

    帖子

    120

    积分

    班长

    Rank: 2

    大洋
    1686
    矿工
    5
    发表于 19-2-7 16:09 | 显示全部楼层
    你电脑问题
    回复 支持 反对

    使用道具 举报

  • TA的每日心情
    擦汗
    19-4-9 13:03
  • 签到天数: 150 天

    [LV.7]常住居民III

    12

    主题

    564

    帖子

    1022

    积分

    营长

    Rank: 5Rank: 5

    大洋
    10286
    矿工
    64
    发表于 19-2-7 16:48 | 显示全部楼层
    多次不成功就应该是自身电脑问题,偶尔不成功属正常
    回复 支持 反对

    使用道具 举报

  • TA的每日心情
    郁闷
    19-3-17 15:25
  • 签到天数: 133 天

    [LV.7]常住居民III

    5

    主题

    516

    帖子

    287

    积分

    排长

    Rank: 3Rank: 3

    大洋
    397
    矿工
    50
    发表于 19-2-7 18:02 | 显示全部楼层
    换个版本试试,看你的是PRO版。我的还是最早的版本用在64位WIN7,没出现过问题,实在不行再考虑排除其它可能。
    回复 支持 反对

    使用道具 举报

    该用户从未签到

    3

    主题

    211

    帖子

    72

    积分

    论坛大神

    大洋
    1725
    矿工
    0
    QQ
    发表于 19-2-7 19:29 | 显示全部楼层
    咋片?BDFIX 不适合替换原盘素材使用...只适合追加方式重灌。肉酱盘.用替换方式轨道ID会混乱
    出现问题应该换另外一台电脑封装试试。逐步排查出问题
    回复 支持 反对

    使用道具 举报

  • TA的每日心情
    奋斗
    19-4-18 00:25
  • 签到天数: 384 天

    [LV.9]以坛为家II

    7

    主题

    461

    帖子

    501

    积分

    连长

    Rank: 4

    大洋
    330
    矿工
    50
     楼主| 发表于 19-2-8 13:56 | 显示全部楼层
    世界哪有真情lu 发表于 19-2-7 19:29
    咋片?BDFIX 不适合替换原盘素材使用...只适合追加方式重灌。肉酱盘.用替换方式轨道ID会混乱
    出现问题应该 ...

    不只是替换素材不好使,追加素材也一样
    回复 支持 反对

    使用道具 举报

  • TA的每日心情
    奋斗
    19-4-18 00:25
  • 签到天数: 384 天

    [LV.9]以坛为家II

    7

    主题

    461

    帖子

    501

    积分

    连长

    Rank: 4

    大洋
    330
    矿工
    50
     楼主| 发表于 19-2-8 13:58 | 显示全部楼层
    zypdeziwo 发表于 19-2-7 18:02
    换个版本试试,看你的是PRO版。我的还是最早的版本用在64位WIN7,没出现过问题,实在不行再考虑排除其它可 ...

    现在网上只能找到v1.8.2.0这个版本了
    回复 支持 反对

    使用道具 举报

  • TA的每日心情
    开心
    19-4-18 10:09
  • 签到天数: 306 天

    [LV.8]以坛为家I

    1

    主题

    358

    帖子

    157

    积分

    班长

    Rank: 2

    大洋
    55
    矿工
    24
    发表于 19-2-8 16:00 | 显示全部楼层
    第二张图,帧率也不对。。。
    第一张图好像是双结局的盘是吧?
    回复 支持 反对

    使用道具 举报

  • TA的每日心情
    郁闷
    19-3-17 15:25
  • 签到天数: 133 天

    [LV.7]常住居民III

    5

    主题

    516

    帖子

    287

    积分

    排长

    Rank: 3Rank: 3

    大洋
    397
    矿工
    50
    发表于 19-2-8 18:05 | 显示全部楼层
    本帖最后由 zypdeziwo 于 19-2-8 18:27 编辑
    tdli 发表于 19-2-8 13:58
    现在网上只能找到v1.8.2.0这个版本了


    我的是1.3.3.0版本,再有一个原因就是换一个电影蓝光原盘试试,看看是不是电影原盘的问题。
    回复 支持 反对

    使用道具 举报

    该用户从未签到

    3

    主题

    211

    帖子

    72

    积分

    论坛大神

    大洋
    1725
    矿工
    0
    QQ
    发表于 19-2-8 19:10 | 显示全部楼层
    tdli 发表于 19-2-8 13:56
    不只是替换素材不好使,追加素材也一样

    咋片?我下来试试
    回复 支持 反对

    使用道具 举报

  • TA的每日心情
    奋斗
    19-4-18 00:25
  • 签到天数: 384 天

    [LV.9]以坛为家II

    7

    主题

    461

    帖子

    501

    积分

    连长

    Rank: 4

    大洋
    330
    矿工
    50
     楼主| 发表于 19-2-9 01:04 | 显示全部楼层
    hyb9373 发表于 19-2-8 16:00
    第二张图,帧率也不对。。。
    第一张图好像是双结局的盘是吧?

    第一张图是钢铁侠2
    回复 支持 反对

    使用道具 举报

  • TA的每日心情
    奋斗
    19-4-18 00:25
  • 签到天数: 384 天

    [LV.9]以坛为家II

    7

    主题

    461

    帖子

    501

    积分

    连长

    Rank: 4

    大洋
    330
    矿工
    50
     楼主| 发表于 19-2-9 01:06 | 显示全部楼层
    本帖最后由 tdli 于 19-2-9 01:07 编辑


    钢铁侠2


    我和这个帖子的情况是一样的
    https://cnlang.org/bbs/forum.php ... amp;highlight=BDFix
    回复 支持 反对

    使用道具 举报

  • TA的每日心情
    开心
    19-4-18 06:36
  • 签到天数: 193 天

    [LV.7]常住居民III

    12

    主题

    699

    帖子

    570

    积分

    连长

    Rank: 4

    大洋
    11
    矿工
    23
    发表于 19-2-9 03:59 | 显示全部楼层
    替换和追加都好使,只是有几率问题,有些字幕不行,有些音轨不行,有些片不行,但是很少见不行的!
    回复 支持 反对

    使用道具 举报

    该用户从未签到

    3

    主题

    211

    帖子

    72

    积分

    论坛大神

    大洋
    1725
    矿工
    0
    QQ
    发表于 19-2-9 15:07 | 显示全部楼层
    第一张是说这俩视频流素材不同.是否忽略继续

    00800.M2TS      0:00:00.000     0:02:23.935     755,914,752     42,014         
    00801.M2TS      0:02:23.935     0:00:44.753     235,849,728     42,160         
    00803.M2TS      0:03:08.688     0:02:30.358     734,871,552     39,100         
    00804.M2TS      0:05:39.047     0:00:25.984     138,915,840     42,769         
    00806.M2TS      0:06:05.031     0:09:39.787     3,133,384,704   43,235         
    00807.M2TS      0:15:44.818     0:00:34.034     182,310,912     42,854         
    00809.M2TS      0:16:18.852     0:06:02.612     1,961,422,848   43,273         
    00810.M2TS      0:22:21.465     0:00:21.396     111,691,776     41,761         
    00812.M2TS      0:22:42.861     0:13:25.888     4,400,240,640   43,681         
    00813.M2TS      0:36:08.749     0:00:06.798     37,232,640      43,813         
    00815.M2TS      0:36:15.548     0:11:38.614     3,704,518,656   42,421         
    00816.M2TS      0:47:54.162     0:00:27.277     144,285,696     42,317         
    00818.M2TS      0:48:21.440     0:10:32.340     3,403,444,224   43,058         
    00819.M2TS      0:58:53.780     0:00:15.849     88,172,544      44,506         
    00821.M2TS      0:59:09.629     0:11:35.069     3,705,053,184   42,644         
    00822.M2TS      1:10:44.698     0:01:28.546     474,525,696     42,872         
    00824.M2TS      1:12:13.245     0:00:34.159     180,031,488     42,163          
    00825.M2TS      1:12:47.404     0:00:47.005     243,922,944     41,514         
    00827.M2TS      1:13:34.409     0:10:38.971     3,379,224,576   42,308         
    00828.M2TS      1:24:13.381     0:00:49.966     263,970,816     42,264         
    00830.M2TS      1:25:03.348     0:08:32.678     2,745,600,000   42,843         
    00831.M2TS      1:33:36.026     0:00:59.851     332,802,048     44,484         
    00833.M2TS      1:34:35.878     0:00:34.534     189,861,888     43,982         
    00834.M2TS      1:35:10.412     0:00:16.016     88,571,904      44,242         
    00836.M2TS      1:35:26.428     0:11:51.502     3,910,385,664   43,968         
    00837.M2TS      1:47:17.931     0:00:19.477     106,364,928     43,687         
    00839.M2TS      1:47:37.409     0:01:45.396     575,084,544     43,651         
    00840.M2TS      1:49:22.805     0:00:12.470     67,780,608      43,481         
    00842.M2TS      1:49:35.276     0:04:34.899     1,463,064,576   42,577         
    00843.M2TS      1:54:10.176     0:00:24.315     126,959,616     41,770         
    00845.M2TS      1:54:34.492     0:10:04.645     2,272,966,656   30,073  
    .................................................................................................................................................................................................

    第二张是字幕和视频帧率不一样。视频29.97你字幕23.96
    回复 支持 反对

    使用道具 举报

  • TA的每日心情
    开心
    19-2-28 08:32
  • 签到天数: 211 天

    [LV.7]常住居民III

    1

    主题

    405

    帖子

    1752

    积分

    营长

    Rank: 5Rank: 5

    大洋
    6000
    矿工
    80
    发表于 19-2-12 14:10 | 显示全部楼层
    麻烦问一下,大家有没有遇到过BDfix在运行的时候提示out of memory?有的话怎么解决的?
    回复 支持 反对

    使用道具 举报

  • TA的每日心情
    开心
    19-4-18 09:13
  • 签到天数: 75 天

    [LV.6]常住居民II

    1

    主题

    136

    帖子

    27

    积分

    列兵

    Rank: 1

    大洋
    111
    矿工
    0
    发表于 19-3-7 20:31 | 显示全部楼层
    没遇到过这个问题
    回复 支持 反对

    使用道具 举报

    您需要登录后才可以回帖 登录 | 立即注册

    本版积分规则

    Archiver|手机版|cnlang.org

    GMT+8, 19-4-18 23:30 , Processed in 0.027855 second(s), 13 queries , Gzip On, MemCache On.

    Powered by Discuz! X3.4

    © 2001-2018 Comsenz Inc.

    快速回复 返回顶部 返回列表