国语视界

 找回密码
 立即注册
搜索
查看: 762|回复: 28

[蓝光技术] 求助:电脑播放4KREMUX文件,视频卡顿

[复制链接]
  • TA的每日心情

    19-6-25 01:45
  • 签到天数: 433 天

    [LV.9]以坛为家II

    249

    主题

    1446

    帖子

    6866

    积分

    版主

    Rank: 16Rank: 16Rank: 16Rank: 16

    大洋
    47437
    矿工
    209

    优秀版主版主

    发表于 19-3-28 23:54 | 显示全部楼层 |阅读模式
    本帖最后由 meimei838100 于 19-3-29 00:32 编辑


    1. General
    2. Unique ID                      : 245122436950729203437007227726546745073 (0xB868DD380C03167439E99CE5E8EE36F1)
    3. Complete name                  : F:\4K海王国语特效字幕 .mkv
    4. Format                         : Matroska
    5. Format version                 : Version 4 / Version 2
    6. File size                      : 65.8 GiB
    7. Duration                       : 2 h 23 min
    8. Overall bit rate mode          : Variable
    9. Overall bit rate               : 65.7 Mb/s
    10. Movie name                     : Aquaman.2018.IMAX.2160p.BluRay.REMUX.HEVC.DTS-HD.MA.TrueHD.7.1.Atmos-FGT
    11. Encoded date                   : UTC 2019-03-27 17:17:12
    12. Writing application            : mkvmerge v21.0.0 ('Tardigrades Will Inherit The Earth') 64-bit
    13. Writing library                : libebml v1.3.5 + libmatroska v1.4.8
    14. Cover                          : Yes
    15. Attachments                    : cover.jpg / cover_land.jpg / small_cover.jpg / small_cover_land.jpg

    16. Video
    17. ID                             : 1
    18. Format                         : HEVC
    19. Format/Info                    : High Efficiency Video Coding
    20. Format profile                 : Main [email protected]@High
    21. Codec ID                       : V_MPEGH/ISO/HEVC
    22. Duration                       : 2 h 23 min
    23. Bit rate                       : 52.7 Mb/s
    24. Width                          : 3 840 pixels
    25. Height                         : 2 160 pixels
    26. Display aspect ratio           : 16:9
    27. Frame rate mode                : Constant
    28. Frame rate                     : 23.976 (24000/1001) FPS
    29. Color space                    : YUV
    30. Chroma subsampling             : 4:2:0 (Type 2)
    31. Bit depth                      : 10 bits
    32. Bits/(Pixel*Frame)             : 0.265
    33. Stream size                    : 52.8 GiB (80%)
    34. Title                          : Aquaman.2018.IMAX.2160p.BluRay.REMUX.HEVC.DTS-HD.MA.TrueHD.7.1.Atmos-FGT
    35. Default                        : Yes
    36. Forced                         : No
    37. Color range                    : Limited
    38. Color primaries                : BT.2020
    39. Transfer characteristics       : PQ
    40. Matrix coefficients            : BT.2020 non-constant
    41. Mastering display color primar : Display P3
    42. Mastering display luminance    : min: 0.0050 cd/m2, max: 4000 cd/m2
    43. Maximum Content Light Level    : 1506 cd/m2
    44. Maximum Frame-Average Light Le : 459 cd/m2

    45. Audio #1
    46. ID                             : 2
    47. Format                         : TrueHD
    48. Format profile                 : TrueHD+Atmos / TrueHD
    49. Codec ID                       : A_TRUEHD
    50. Duration                       : 2 h 23 min
    51. Bit rate mode                  : Variable
    52. Bit rate                       : 3 579 kb/s
    53. Maximum bit rate               : 6 144 kb/s
    54. Channel(s)                     : Object Based / 8 channels
    55. Channel positions              : Object Based / Front: L C R, Side: L R, Back: L R, LFE
    56. Sampling rate                  :  / 48.0 kHz
    57. Frame rate                     : 1 200.000 FPS (40 SPF)
    58. Compression mode               : Lossless
    59. Stream size                    : 3.58 GiB (5%)
    60. Title                          : Aquaman.2018.IMAX.2160p.BluRay.REMUX.HEVC.DTS-HD.MA.TrueHD.7.1.Atmos-FGT
    61. Language                       : English
    62. Default                        : Yes
    63. Forced                         : No

    64. Audio #2
    65. ID                             : 3
    66. Format                         : DTS
    67. Format/Info                    : Digital Theater Systems
    68. Format profile                 : MA / Core
    69. Codec ID                       : A_DTS
    70. Duration                       : 2 h 23 min
    71. Bit rate mode                  : Variable / Constant
    72. Bit rate                       : 4 292 kb/s / 1 509 kb/s
    73. Channel(s)                     : 8 channels / 6 channels
    74. Channel positions              : Front: L C R, Side: L R, Back: L R, LFE / Front: L C R, Side: L R, LFE
    75. Sampling rate                  : 48.0 kHz
    76. Frame rate                     : 93.750 FPS (512 SPF)
    77. Bit depth                      : 24 bits
    78. Compression mode               : Lossless / Lossy
    79. Delay relative to video        : -9 ms
    80. Stream size                    : 4.30 GiB (7%)
    81. Title                          : Aquaman.2018.IMAX.2160p.BluRay.REMUX.HEVC.DTS-HD.MA.TrueHD.7.1.Atmos-FGT
    82. Language                       : English
    83. Default                        : No
    84. Forced                         : No

    85. Audio #3
    86. ID                             : 4
    87. Format                         : DTS
    88. Format/Info                    : Digital Theater Systems
    89. Format profile                 : MA / Core
    90. Codec ID                       : A_DTS
    91. Duration                       : 2 h 23 min
    92. Bit rate mode                  : Variable / Constant
    93. Bit rate                       : 4 965 kb/s / 1 509 kb/s
    94. Channel(s)                     : 8 channels / 6 channels
    95. Channel positions              : Front: L C R, Side: L R, Back: L R, LFE / Front: L C R, Side: L R, LFE
    96. Sampling rate                  : 48.0 kHz
    97. Frame rate                     : 93.750 FPS (512 SPF)
    98. Bit depth                      : 24 bits
    99. Compression mode               : Lossless / Lossy
    100. Delay relative to video        : 1 ms
    101. Stream size                    : 4.97 GiB (8%)
    102. Language                       : Chinese
    103. Default                        : No
    104. Forced                         : No

    105. Text #1
    106. ID                             : 5
    107. Format                         : PGS
    108. Muxing mode                    : zlib
    109. Codec ID                       : S_HDMV/PGS
    110. Codec ID/Info                  : Picture based subtitle format used on BDs/HD-DVDs
    111. Duration                       : 2 h 14 min
    112. Bit rate                       : 42.3 kb/s
    113. Count of elements              : 3123
    114. Stream size                    : 40.7 MiB (0%)
    115. Language                       : Chinese
    116. Default                        : No
    117. Forced                         : No

    118. Text #2
    119. ID                             : 6
    120. Format                         : PGS
    121. Muxing mode                    : zlib
    122. Codec ID                       : S_HDMV/PGS
    123. Codec ID/Info                  : Picture based subtitle format used on BDs/HD-DVDs
    124. Duration                       : 2 h 15 min
    125. Bit rate                       : 202 kb/s
    126. Count of elements              : 6711
    127. Stream size                    : 196 MiB (0%)
    128. Language                       : Chinese
    129. Default                        : Yes
    130. Forced                         : No
    复制代码


    我的电脑配置如上,我在用电脑播放4K,REMUX文件时,视频会读取一段时间后就开始卡顿
    使用
    会出现视频和音轨不相符~
    请求支援

    本帖子中包含更多资源

    您需要 登录 才可以下载或查看,没有帐号?立即注册

    x
  • TA的每日心情

    19-6-13 11:38
  • 签到天数: 147 天

    [LV.7]常住居民III

    4

    主题

    369

    帖子

    1035

    积分

    禁止访问

    大洋
    14855
    矿工
    50

    爱心大使

    发表于 19-3-29 10:03 | 显示全部楼层
    提示: 作者被禁止或删除 内容自动屏蔽
    ☚我充钱了请勿封号
    回复 支持 1 反对 0

    使用道具 举报

  • TA的每日心情
    难过
    19-6-25 08:54
  • 签到天数: 464 天

    [LV.9]以坛为家II

    7

    主题

    1081

    帖子

    541

    积分

    连长

    Rank: 4

    大洋
    6623
    矿工
    33
    发表于 19-3-29 00:10 | 显示全部楼层
    用的什么播放器,怎样设置的都贴图

    点评

    已上传,帮忙看看  发表于 19-3-29 00:34
    回复 支持 反对

    使用道具 举报

  • TA的每日心情
    开心
    19-6-25 11:09
  • 签到天数: 353 天

    [LV.8]以坛为家I

    99

    主题

    1489

    帖子

    1071

    积分

    营长

    Rank: 5Rank: 5

    大洋
    372
    矿工
    65
    发表于 19-3-29 00:26 | 显示全部楼层
    硬件没有问题,软件如果不知道如何弄建议下一个完美者解码,自动搞定
    回复 支持 反对

    使用道具 举报

  • TA的每日心情
    难过
    19-6-25 08:54
  • 签到天数: 464 天

    [LV.9]以坛为家II

    7

    主题

    1081

    帖子

    541

    积分

    连长

    Rank: 4

    大洋
    6623
    矿工
    33
    发表于 19-3-29 00:47 | 显示全部楼层
    本帖最后由 15109259550 于 19-3-29 00:48 编辑

    估计播放器没开硬解码,或者设置不正确
    回复 支持 反对

    使用道具 举报

  • TA的每日心情
    奋斗
    19-6-24 09:10
  • 签到天数: 239 天

    [LV.7]常住居民III

    2

    主题

    343

    帖子

    253

    积分

    排长

    Rank: 3Rank: 3

    大洋
    1465
    矿工
    50
    发表于 19-3-29 00:52 | 显示全部楼层
    看配置应该是可以的!估计是potplayer的问题!该换个64位的吧。百度搜索下 Potplayer+LAVFilters+madVR教程

    有一个最简单的判断GPU是否可以硬解4K HEVC 10-bit视频的方法——使用DXVAChecker这款小软件即可。如果看到“HEVC_VLD_Main10”一栏中有显示“4K”或者“QFHD”,那就说明GPU可以硬解4K HEVC 10-bit视频。
    回复 支持 反对

    使用道具 举报

  • TA的每日心情
    无聊
    19-6-24 13:04
  • 签到天数: 285 天

    [LV.8]以坛为家I

    8

    主题

    520

    帖子

    1128

    积分

    营长

    Rank: 5Rank: 5

    大洋
    6357
    矿工
    80
    发表于 19-3-29 01:07 | 显示全部楼层
    楼上正解
    回复

    使用道具 举报

  • TA的每日心情

    18-12-14 23:18
  • 签到天数: 28 天

    [LV.4]偶尔看看III

    4

    主题

    255

    帖子

    45

    积分

    列兵

    Rank: 1

    大洋
    4658
    矿工
    0
    发表于 19-3-29 07:52 | 显示全部楼层
    这个配置没问题,不输出HDR,DVDFAB Player、Potplayer都可以搞定,PD就不要想了,输出HDR,只能Potplayer+LAV+mavdr。至于卡顿问题,估计是Potplayer的解码设置问题,你得把设置贴图上来
    回复 支持 反对

    使用道具 举报

  • TA的每日心情
    开心
    19-6-25 03:52
  • 签到天数: 780 天

    [LV.10]以坛为家III

    6

    主题

    2227

    帖子

    1077

    积分

    营长

    Rank: 5Rank: 5

    大洋
    10364
    矿工
    62
    发表于 19-3-29 08:56 | 显示全部楼层
    本帖最后由 鹤舞清枫 于 19-3-29 08:57 编辑

    我的电脑配置跟你的差不多,只是显卡是七彩虹GTX760的,差了那么一丢丢,不仅仅播放4K卡顿,连码率高一点点的1080P都会卡顿,偏偏这个电脑播放卡顿的高码率视频在我手机里面播放是很流畅的,真的很无语了
    回复 支持 反对

    使用道具 举报

  • TA的每日心情
    开心
    19-6-25 08:09
  • 签到天数: 342 天

    [LV.8]以坛为家I

    7

    主题

    1027

    帖子

    695

    积分

    连长

    Rank: 4

    大洋
    10657
    矿工
    78
    发表于 19-3-29 09:23 | 显示全部楼层
    1070的显卡支持4K硬解,不必担心。
    最好把这个文件换到别的盘里看看,是不是硬盘的问题
    回复 支持 反对

    使用道具 举报

  • TA的每日心情
    开心
    19-6-25 11:09
  • 签到天数: 353 天

    [LV.8]以坛为家I

    99

    主题

    1489

    帖子

    1071

    积分

    营长

    Rank: 5Rank: 5

    大洋
    372
    矿工
    65
    发表于 19-3-29 09:38 | 显示全部楼层
    每一个4K都卡还是只有海王这个?

    点评

    每个  发表于 19-3-29 23:53
    回复 支持 反对

    使用道具 举报

  • TA的每日心情
    奋斗
    19-6-25 06:34
  • 签到天数: 491 天

    [LV.9]以坛为家II

    907

    主题

    2130

    帖子

    3466

    积分

    团长

    Rank: 6Rank: 6

    大洋
    62446
    矿工
    212
    发表于 19-3-29 12:05 | 显示全部楼层
    这个打开了没有?

    本帖子中包含更多资源

    您需要 登录 才可以下载或查看,没有帐号?立即注册

    x

    点评

    我试试谢谢了  发表于 19-3-29 23:55
    回复 支持 反对

    使用道具 举报

  • TA的每日心情
    开心
    19-6-25 06:56
  • 签到天数: 710 天

    [LV.9]以坛为家II

    15

    主题

    1048

    帖子

    2057

    积分

    营长

    Rank: 5Rank: 5

    大洋
    1821
    矿工
    59
    发表于 19-3-29 17:12 | 显示全部楼层
    换WIN10试试。
    回复 支持 反对

    使用道具 举报

  • TA的每日心情
    开心
    19-6-24 17:14
  • 签到天数: 210 天

    [LV.7]常住居民III

    0

    主题

    216

    帖子

    27

    积分

    列兵

    Rank: 1

    大洋
    969
    矿工
    0
    发表于 19-3-29 19:05 | 显示全部楼层

    应该是系统和硬件驱动问题。
    回复 支持 反对

    使用道具 举报

  • TA的每日心情
    奋斗
    19-6-25 10:43
  • 签到天数: 777 天

    [LV.10]以坛为家III

    323

    主题

    7602

    帖子

    7232

    积分

    旅长

    Rank: 7Rank: 7Rank: 7

    大洋
    35974
    矿工
    203

    灌水之王热心会员论坛元老王者至尊富甲天下爱心大使

    发表于 19-3-29 20:04 | 显示全部楼层
    这配置打游戏美死了!
    完美的影片应该是蓝光4K视频+次世代原声+次时代国语+国配特效字幕+原盘特效字幕+特效注释字幕
    回复 支持 反对

    使用道具 举报

  • TA的每日心情
    开心
    19-2-16 20:39
  • 签到天数: 101 天

    [LV.6]常住居民II

    4

    主题

    456

    帖子

    1939

    积分

    营长

    Rank: 5Rank: 5

    大洋
    72831
    矿工
    200
    发表于 19-3-29 22:38 | 显示全部楼层
    本帖最后由 y2gy2g 于 19-3-29 22:51 编辑

    试试不同的播放器
    https://www.smplayer.info/en/downloads
    DVDFab Player Ultra 5.0.2.6
    https://sourceforge.net/projects/mpcbe/files/MPC-BE/
    kodi

    本帖子中包含更多资源

    您需要 登录 才可以下载或查看,没有帐号?立即注册

    x
    回复 支持 反对

    使用道具 举报

  • TA的每日心情
    开心
    19-6-25 11:09
  • 签到天数: 353 天

    [LV.8]以坛为家I

    99

    主题

    1489

    帖子

    1071

    积分

    营长

    Rank: 5Rank: 5

    大洋
    372
    矿工
    65
    发表于 19-3-30 00:03 | 显示全部楼层
    LZ试试把电影复制到C盘里面试试,如果没问题,就是你的存储盘转速太低读取太慢的原因
    回复 支持 反对

    使用道具 举报

  • TA的每日心情
    郁闷
    19-6-24 12:16
  • 签到天数: 255 天

    [LV.8]以坛为家I

    1

    主题

    397

    帖子

    137

    积分

    班长

    Rank: 2

    大洋
    258
    矿工
    12
    发表于 19-3-30 13:11 | 显示全部楼层
    你的显卡没开启硬件加速吧,网上搜一下怎么开启硬件加速。
    回复 支持 反对

    使用道具 举报

    该用户从未签到

    1

    主题

    4924

    帖子

    1438

    积分

    营长

    Rank: 5Rank: 5

    大洋
    118196
    矿工
    195
    发表于 19-3-30 15:54 | 显示全部楼层
    把potplayer换成64位就不卡了。
    所有的电影都只有一个主题:我是谁。
    回复 支持 反对

    使用道具 举报

  • TA的每日心情
    奋斗
    19-6-25 08:13
  • 签到天数: 212 天

    [LV.7]常住居民III

    0

    主题

    237

    帖子

    81

    积分

    列兵

    Rank: 1

    大洋
    731
    矿工
    13
    发表于 19-3-30 16:04 | 显示全部楼层
    本帖最后由 爱电影 于 19-3-30 16:08 编辑

    您这个硬件配置播放4K REMUX 没问题,Potplayer正常情况下CPU软解或显卡硬解都可以搞定。

    您是不是用了下LAV+mavdr解码?
    如果是的话,楼主多百度下LAV+mavdr的帖子吧,毕竟设置选项太多了,很难猜到您那里设置的问题。

    啰嗦一句:其实4K REMUX正常解码已经很清晰了,除非有强迫症不然真心用不到LAV+mavdr解码。
    Potplayer默认解码已经不错,就算投影130寸以上看,看电影的过程中注意力也都在字幕、剧情上,人物表情都不一定能看清,何况细节上呢。

    最后:4K REMUX 基本都是BT.2020的,播放时要选择正确才能看到应有的色彩哦,貌似我自己平时都是选在BT709上(怕自动选择不正确),经常看4K的时候忘记调整!

    点评

    最后发现忘了调整也看的美滋滋的,以后就不那么纠结了  发表于 19-3-31 12:09
    回复 支持 反对

    使用道具 举报

    您需要登录后才可以回帖 登录 | 立即注册

    本版积分规则

    Archiver|手机版|cnlang.org

    GMT+8, 19-6-25 12:16 , Processed in 0.023282 second(s), 14 queries , Gzip On, MemCache On.

    Powered by Discuz! X3.4

    © 2001-2018 Comsenz Inc.

    快速回复 返回顶部 返回列表