国语视界

 找回密码
 立即注册
查看: 139|回复: 1

[技术交流] 如何导出多版本4k蓝光盘的章节目录

[复制链接]
  • TA的每日心情
    无聊
    20-7-8 15:57
  • 签到天数: 580 天

    [LV.9]以坛为家II

    9

    主题

    1096

    帖子

    1083

    积分

    营长

    Rank: 5Rank: 5

    大洋
    5964
    矿工
    50
    发表于 20-6-24 02:49 | 显示全部楼层 |阅读模式
    用什么工具可以导出一个2in1的版本的4k蓝光盘章节,就像下面这样的格式一样。
    FILES:

    Name            Time In         Length          Size            Total Bitrate  
    ----            -------         ------          ----            -------------  
    00001.M2TS      0:00:00.000     0:01:52.737     1,208,623,104   85,765 kbps   
    00338.M2TS      0:01:52.737     0:43:49.960     29,411,905,536  89,467 kbps   
    00337.M2TS      0:45:42.698     0:00:39.497     429,723,648     87,037 kbps   
    00340.M2TS      0:46:22.196     0:21:55.314     14,668,529,664  89,216 kbps   
    00341.M2TS      1:08:17.510     0:03:02.765     2,022,236,160   88,516 kbps   
    00354.M2TS      1:11:20.275     0:09:22.478     6,331,901,952   90,057 kbps   
    00355.M2TS      1:20:42.754     0:00:29.779     331,782,144     89,129 kbps   
    00351.M2TS      1:21:12.534     0:22:47.699     15,419,277,312  90,191 kbps   
    00347.M2TS      1:44:00.233     0:05:27.368     3,084,908,544   75,386 kbps   
    和内容2的章节
    FILES:

    Name            Time In         Length          Size            Total Bitrate  
    ----            -------         ------          ----            -------------  
    00336.M2TS      0:00:00.000     0:01:52.695     1,204,310,016   85,490 kbps   
    00338.M2TS      0:01:52.695     0:43:49.960     29,411,905,536  89,467 kbps   
    00339.M2TS      0:45:42.656     0:01:00.518     657,530,880     86,919 kbps   
    00340.M2TS      0:46:43.175     0:21:55.314     14,668,529,664  89,216 kbps   
    00342.M2TS      1:08:38.489     0:20:03.785     13,431,066,624  89,258 kbps   
    00354.M2TS      1:28:42.275     0:09:22.478     6,331,901,952   90,057 kbps   
    00356.M2TS      1:38:04.753     0:05:43.259     3,795,118,080   88,448 kbps   
    00351.M2TS      1:43:48.013     0:22:47.699     15,419,277,312  90,191 kbps   
    00343.M2TS      2:06:35.713     0:06:22.256     2,778,009,600   58,139 kbps   
    有谁知道用什么工具可以导出这样的格式。谢谢
  • TA的每日心情
    开心
    20-7-11 05:16
  • 签到天数: 474 天

    [LV.9]以坛为家II

    1

    主题

    719

    帖子

    221

    积分

    排长

    Rank: 3Rank: 3

    大洋
    3853
    矿工
    30
    发表于 20-6-24 09:11 | 显示全部楼层
    你说的是BDinfo?
    回复 支持 反对

    使用道具 举报

    您需要登录后才可以回帖 登录 | 立即注册

    本版积分规则

    Archiver|手机版|cnlang.org

    GMT+8, 20-7-11 09:27 , Processed in 0.012464 second(s), 8 queries , Gzip On, MemCache On.

    Powered by Discuz! X3.4

    © 2001-2018 Comsenz Inc.

    快速回复 返回顶部 返回列表