国语视界

 找回密码
 立即注册
查看: 2248|回复: 15

[封装技术] 请教HDR10+原盘REMUX到MKV的问题

[复制链接]

2

主题

20

帖子

6

积分

列兵

大洋
89
阅读权限
10
发表于 23-8-12 15:42 | 显示全部楼层 |阅读模式
手上有一部HDR10+的原盘,想用mkv制作REMUX,但是做完后虽然Mediainfo能识别出HDR10+,放到Infuse上却识别为HDR10,而把原盘放到Infuse上则可以识别为HDR10+,想请问是需要像DV一样修复吗?

14

主题

993

帖子

1365

积分

论坛大神

大洋
22439
阅读权限
130
发表于 23-8-12 19:39 | 显示全部楼层
MKVToolNix 版本?
回复 支持 1 反对 0

使用道具 举报

2

主题

20

帖子

6

积分

列兵

大洋
89
阅读权限
10
 楼主| 发表于 23-8-12 20:33 | 显示全部楼层

用的是72.0.0,完整的mediainfo如下:
General
Unique ID                                : 325706560251445372756930295613857142613 (0xF508CD3F4D5232F37D838718B8DF1755)
Complete name                            : Infernal.Affairs.2160p.HKG.UHD.Blu-ray.HDR10+.HEVC.Dolby.TrueHD.Atmos.7.1.mkv
Format                                   : Matroska
Format version                           : Version 4
File size                                : 42.4 GiB
Duration                                 : 1 h 40 min
Overall bit rate mode                    : Variable
Overall bit rate                         : 60.2 Mb/s
Frame rate                               : 24.000 FPS
Movie name                               : Infernal Affairs
Encoded date                             : 2023-08-11 18:22:21 UTC
Writing application                      : mkvmerge v72.0.0 ('Minuano (Six-eight)') 64-bit
Writing library                          : libebml v1.4.4 + libmatroska v1.7.1

Video
ID                                       : 1
Format                                   : HEVC
Format/Info                              : High Efficiency Video Coding
Format profile                           : Main [email protected]@High
HDR format                               : SMPTE ST 2094 App 4, Version 1, HDR10+ Profile B compatible
Codec ID                                 : V_MPEGH/ISO/HEVC
Duration                                 : 1 h 40 min
Bit rate                                 : 49.9 Mb/s
Width                                    : 3 840 pixels
Height                                   : 2 160 pixels
Display aspect ratio                     : 16:9
Frame rate mode                          : Constant
Frame rate                               : 24.000 FPS
Color space                              : YUV
Chroma subsampling                       : 4:2:0 (Type 2)
Bit depth                                : 10 bits
Bits/(Pixel*Frame)                       : 0.250
Stream size                              : 35.1 GiB (83%)
Language                                 : Chinese
Default                                  : Yes
Forced                                   : No
Color range                              : Limited
Color primaries                          : BT.2020
Transfer characteristics                 : PQ
Matrix coefficients                      : BT.2020 non-constant
Mastering display color primaries        : Display P3
Mastering display luminance              : min: 0.0001 cd/m2, max: 1000 cd/m2
Maximum Content Light Level              : 1000 cd/m2
Maximum Frame-Average Light Level        : 295 cd/m2
回复 支持 反对

使用道具 举报

14

主题

993

帖子

1365

积分

论坛大神

大洋
22439
阅读权限
130
发表于 23-8-12 21:33 | 显示全部楼层
换78版本呢
回复 支持 反对

使用道具 举报

2

主题

20

帖子

6

积分

列兵

大洋
89
阅读权限
10
 楼主| 发表于 23-8-12 22:04 | 显示全部楼层

仍然不行,infuse识别为普通HDR,mediainfo看到是HDR10+
General
Unique ID                                : 232708518558364989497159875783943668955 (0xAF1207C9A437F5EEA603432AD36A44DB)
Complete name                            : Y:\TVSeries\00004.mkv
Format                                   : Matroska
Format version                           : Version 4
File size                                : 49.7 GiB
Duration                                 : 1 h 59 min
Overall bit rate mode                    : Variable
Overall bit rate                         : 59.6 Mb/s
Frame rate                               : 24.000 FPS
Encoded date                             : 2023-08-12 13:45:24 UTC
Writing application                      : mkvmerge v78.0 ('Running') 64-bit
Writing library                          : libebml v1.4.4 + libmatroska v1.7.1

Video
ID                                       : 1
Format                                   : HEVC
Format/Info                              : High Efficiency Video Coding
Format profile                           : Main [email protected]@High
HDR format                               : SMPTE ST 2094 App 4, Version 1, HDR10+ Profile B compatible
Codec ID                                 : V_MPEGH/ISO/HEVC
Duration                                 : 1 h 59 min
Bit rate                                 : 49.8 Mb/s
Width                                    : 3 840 pixels
Height                                   : 2 160 pixels
Display aspect ratio                     : 16:9
Frame rate mode                          : Constant
Frame rate                               : 24.000 FPS
Color space                              : YUV
Chroma subsampling                       : 4:2:0 (Type 2)
Bit depth                                : 10 bits
Bits/(Pixel*Frame)                       : 0.250
Stream size                              : 41.6 GiB (84%)
Default                                  : Yes
Forced                                   : No
Color range                              : Limited
Color primaries                          : BT.2020
Transfer characteristics                 : PQ
Matrix coefficients                      : BT.2020 non-constant
Mastering display color primaries        : Display P3
Mastering display luminance              : min: 0.0001 cd/m2, max: 1000 cd/m2
Maximum Content Light Level              : 649 cd/m2
Maximum Frame-Average Light Level        : 291 cd/m2
回复 支持 反对

使用道具 举报

7

主题

984

帖子

3132

积分

团长

大洋
43912
阅读权限
60
发表于 23-8-12 23:30 | 显示全部楼层
用MakeMKV试试或是用DVDFab
回复 支持 反对

使用道具 举报

31

主题

3246

帖子

1013

积分

营长

大洋
4909
阅读权限
50
发表于 23-8-13 00:10 | 显示全部楼层
不需要!!!!!!!
回复

使用道具 举报

0

主题

2711

帖子

1093

积分

营长

大洋
5212
阅读权限
50
发表于 23-8-13 16:05 | 显示全部楼层
你用makemkv过一遍应该就好了~~~
回复 支持 反对

使用道具 举报

2

主题

20

帖子

6

积分

列兵

大洋
89
阅读权限
10
 楼主| 发表于 23-8-13 17:19 | 显示全部楼层
zdk961 发表于 23-8-13 16:05
你用makemkv过一遍应该就好了~~~

makemkv也是一样的问题,感觉是infuse的问题了
回复 支持 反对

使用道具 举报

2

主题

20

帖子

6

积分

列兵

大洋
89
阅读权限
10
 楼主| 发表于 23-8-13 17:20 | 显示全部楼层
淡淡的秋痕 发表于 23-8-12 23:30
用MakeMKV试试或是用DVDFab

makemkv也是一样的问题,感觉是infuse的问题了
回复 支持 反对

使用道具 举报

0

主题

2711

帖子

1093

积分

营长

大洋
5212
阅读权限
50
发表于 23-8-14 00:09 | 显示全部楼层
宿陌辰 发表于 23-8-13 17:19
makemkv也是一样的问题,感觉是infuse的问题了

那不简单,既然你要remux,你是不需要菜单的,那就去掉原盘多余音轨,字幕,章节,重新封装成无菜单的原盘格式嘛,总体容量比mkv格式大不了多少~~~试试呗~~
回复 支持 反对

使用道具 举报

2

主题

20

帖子

6

积分

列兵

大洋
89
阅读权限
10
 楼主| 发表于 23-8-14 02:44 | 显示全部楼层
zdk961 发表于 23-8-14 00:09
那不简单,既然你要remux,你是不需要菜单的,那就去掉原盘多余音轨,字幕,章节,重新封装成无菜单的原 ...

现在就是这么做的
回复 支持 反对

使用道具 举报

0

主题

63

帖子

7

积分

列兵

大洋
350
阅读权限
10
发表于 24-2-9 10:33 | 显示全部楼层
感觉是infuse的问题
回复 支持 反对

使用道具 举报

2

主题

20

帖子

6

积分

列兵

大洋
89
阅读权限
10
 楼主| 发表于 24-2-9 19:22 | 显示全部楼层
connie 发表于 24-2-9 10:33
感觉是infuse的问题

我也感觉
回复 支持 反对

使用道具 举报

0

主题

63

帖子

7

积分

列兵

大洋
350
阅读权限
10
发表于 24-2-9 19:33 | 显示全部楼层

INFUSE好像不能识别单层双轨杜比视界DV,只能识别成HDR10。INFUSE好像只能识别单层单轨杜比视界DV
回复 支持 反对

使用道具 举报

2

主题

20

帖子

6

积分

列兵

大洋
89
阅读权限
10
 楼主| 发表于 24-2-16 03:03 | 显示全部楼层
connie 发表于 24-2-9 19:33
INFUSE好像不能识别单层双轨杜比视界DV,只能识别成HDR10。INFUSE好像只能识别单层单轨杜比视界DV ...

Profile7都不能识别,只能识别Profile5和8
回复 支持 反对

使用道具 举报

您需要登录后才可以回帖 登录 | 立即注册

本版积分规则

快速回复 返回顶部 返回列表